<?xml version="1.0" standalone="no"?>
<!DOCTYPE svg PUBLIC "-//W3C//DTD SVG 1.1//EN" "http://www.w3.org/Graphics/SVG/1.1/DTD/svg11.dtd">
<svg xmlns="http://www.w3.org/2000/svg">
<defs >
<font id="Barlow" horiz-adv-x="536" ><font-face
    font-family="Barlow Black"
    units-per-em="1000"
    panose-1="0 0 10 0 0 0 0 0 0 0"
    ascent="1000"
    descent="-200"
    alphabetic="0" />
<glyph unicode=" " glyph-name="space" horiz-adv-x="200" />
<glyph unicode="!" glyph-name="exclam" horiz-adv-x="360" d="M114 248T110 252T105 263L88 685Q88 700 102 700H260Q274 700 274 685L256 263Q256 256 252 252T240 248H121Q114 248 110 252ZM132 0T106 26T79 94Q79 136 105 162T173 188Q214 188 240 162T267
94Q267 54 241 27T173 0Q132 0 106 26Z" />
<glyph unicode="&quot;" glyph-name="quotedbl" horiz-adv-x="423" d="M24 460T23 474L5 684V686Q5 700 20 700H167Q175 700 179 696T182 684L164 474Q163 460 149 460H38Q24 460 23 474ZM264 460T263 474L245 684V686Q245 700 260 700H407Q415 700 419 696T422
684L404 474Q403 460 389 460H278Q264 460 263 474Z" />
<glyph unicode="#" glyph-name="numbersign" horiz-adv-x="705" d="M675 395T671 391T660 387H586Q580 387 580 382L572 323Q572 318 576 318H623Q630 318 634 314T638 303V173Q638 166 634 162T623 158H551Q545 158 545 153L529 48Q528 34 513 34H355Q339 34
341 50L357 153Q357 158 353 158H292Q286 158 286 153L270 48Q269 34 254 34H96Q80 34 82 50L98 153Q98 158 94 158H45Q38 158 34 162T30 173V303Q30 310 34 314T45 318H119Q125 318 125 323L133 382Q133 387 129 387H82Q75 387 71 391T67 402V533Q67 540 71 544T82
548H154Q160 548 160 553L176 658Q177 672 192 672H350Q366 672 364 656L348 553Q348 548 352 548H413Q419 548 419 553L435 658Q436 672 451 672H609Q625 672 623 656L607 553Q607 548 611 548H660Q667 548 671 544T675 533V402Q675 395 671 391ZM384 318T384
323L392 382Q392 387 388 387H327Q321 387 321 382L313 323Q313 318 317 318H378Q384 318 384 323Z" />
<glyph unicode="$" glyph-name="dollar" horiz-adv-x="580" d="M553 126T504 72T371 0Q366 -2 366 -6L368 -66Q368 -73 364 -77T353 -81H219Q212 -81 208 -77T204 -66L206 -4Q206 1 202 2Q119 23 72 79T25 216V230Q25 237 29 241T40 245H188Q195 245 199 241T203
230V224Q203 196 231 175T306 153Q342 153 357 168T373 203Q373 225 354 236T284 262L255 271Q161 301 97 351T32 496Q32 572 78 625T202 699Q206 700 206 705L204 776Q204 783 208 787T219 791H353Q360 791 364 787T368 776L366 702Q366 698 370 697Q451 675 500
616T549 476V467Q549 460 545 456T534 452H387Q380 452 376 456T372 467V468Q372 498 346 522T276 547Q245 547 227 534T209 498Q209 480 222 468T262 444T345 414Q353 411 412 392T512 325T553 208Q553 126 504 72Z" />
<glyph unicode="%" glyph-name="percent" horiz-adv-x="809" d="M163 371T124 393T62 455T39 540Q39 586 62 624T124 685T209 708Q255 708 293 686T355 625T378 540Q378 494 356 455T294 394T209 371Q163 371 124 393ZM150 0T150 10Q150 15 152 18L526 690Q531
700 544 700H644Q650 700 653 698T657 691Q657 687 654 682L281 10Q276 0 263 0H163Q150 0 150 10ZM234 478T251 496T269 540Q269 565 252 583T209 601Q184 601 166 584T148 540Q148 514 165 496T209 478Q234 478 251 496ZM564 -8T525 14T463 76T440 161Q440 207
463 245T525 306T610 329Q656 329 694 307T756 246T779 161Q779 115 757 76T695 15T610 -8Q564 -8 525 14ZM635 99T652 117T670 161Q670 186 653 204T610 222Q585 222 567 205T549 161Q549 135 566 117T610 99Q635 99 652 117Z" />
<glyph unicode="&amp;" glyph-name="ampersand" horiz-adv-x="736" d="M697 13T697 9Q697 5 694 3T684 0H508Q497 0 489 8L461 38Q458 41 454 39Q359 -8 259 -8Q161 -8 93 38T25 178Q25 242 57 286T147 364Q153 368 148 371Q105 423 91 454T77 524Q77 574 105
616T186 683T305 708Q373 708 427 683T512 611T543 506Q543 444 511 399T424 319Q419 316 423 312Q438 295 470 261Q473 257 477 261Q521 305 540 338Q545 346 552 346Q557 346 560 344L677 277Q689 269 683 257Q642 189 590 136Q586 133 588 131L614 103L692 18Q697
13 697 9ZM289 538T277 529T265 505Q265 497 272 486T303 446Q305 442 310 444Q332 458 343 471T355 501Q355 519 343 528T309 538Q289 538 277 529ZM312 155T332 164Q335 165 335 166T334 170L301 205L269 238Q267 241 262 239Q216 214 216 183Q216 167 230 157T266
147Q280 147 293 150Q312 155 332 164Z" />
<glyph unicode="&apos;" glyph-name="quotesingle" horiz-adv-x="193" d="M24 460T23 474L5 684V686Q5 700 20 700H177Q185 700 189 696T192 684L174 474Q173 460 159 460H38Q24 460 23 474Z" />
<glyph unicode="(" glyph-name="parenleft" horiz-adv-x="405" d="M151 -83T144 -75Q78 3 40 102T1 337Q1 471 39 571T144 748Q151 756 162 756H316Q322 756 325 754T329 747Q329 743 326 738Q274 652 243 558T211 337Q211 211 242 117T326 -65Q329 -70 329 -74Q329
-83 316 -83H162Q151 -83 144 -75Z" />
<glyph unicode=")" glyph-name="parenright" horiz-adv-x="405" d="M254 756T261 748Q327 670 365 571T404 336Q404 202 366 102T261 -75Q254 -83 243 -83H89Q83 -83 80 -81T76 -74Q76 -70 79 -65Q131 21 162 115T194 336Q194 462 163 556T79 738Q76 743 76 747Q76
756 89 756H243Q254 756 261 748Z" />
<glyph unicode="*" glyph-name="asterisk" horiz-adv-x="400" d="M156 393T152 397T148 408L149 475Q149 478 147 479T143 478L77 440Q72 437 69 437Q62 437 57 445L19 515Q17 518 17 522Q17 531 26 535L92 568Q97 571 92 574L26 605Q17 610 17 618Q17 623 19
626L57 695Q62 703 69 703Q74 703 77 701L143 663Q145 662 147 663T149 667L148 732Q148 739 152 743T163 747H237Q244 747 248 743T252 732L251 667Q251 664 253 663T257 663L323 701Q326 703 331 703Q338 703 343 695L381 626Q383 623 383 618Q383 611 374 606L306
574Q300 571 306 568L374 535Q383 531 383 522Q383 517 381 514L343 445Q338 437 331 437Q327 437 323 440L257 478Q255 480 253 479T251 475L252 408Q252 401 248 397T237 393H163Q156 393 152 397Z" />
<glyph unicode="+" glyph-name="plus" horiz-adv-x="476" d="M446 372T450 368T454 357V227Q454 220 450 216T439 212H323Q318 212 318 207V91Q318 84 314 80T303 76H173Q166 76 162 80T158 91V207Q158 212 153 212H37Q30 212 26 216T22 227V357Q22 364 26 368T37
372H153Q158 372 158 377V493Q158 500 162 504T173 508H303Q310 508 314 504T318 493V377Q318 372 323 372H439Q446 372 450 368Z" />
<glyph unicode="," glyph-name="comma" horiz-adv-x="265" d="M22 -111T24 -95L50 146Q51 160 65 160H202Q210 160 213 156T214 143L149 -98Q146 -111 133 -111H38Q22 -111 24 -95Z" />
<glyph unicode="-" glyph-name="hyphen" horiz-adv-x="419" d="M30 205T26 209T22 220V350Q22 357 26 361T37 365H382Q389 365 393 361T397 350V220Q397 213 393 209T382 205H37Q30 205 26 209Z" />
<glyph unicode="." glyph-name="period" horiz-adv-x="264" d="M84 -8T58 18T31 86Q31 128 57 154T125 180Q166 180 192 154T219 86Q219 46 192 19T125 -8Q84 -8 58 18Z" />
<glyph unicode="/" glyph-name="slash" horiz-adv-x="521" d="M23 0T20 5T19 17L299 688Q304 700 317 700H472Q480 700 483 696T484 683L205 12Q201 0 187 0H31Q23 0 20 5Z" />
<glyph unicode="0" glyph-name="zero" horiz-adv-x="573" d="M167 -12T99 54T30 236V464Q30 577 98 642T286 708Q405 708 474 643T543 464V236Q543 121 474 55T286 -12Q167 -12 99 54ZM318 149T336 169T355 226V470Q355 506 337 526T286 547Q254 547 236 527T218
470V226Q218 190 236 170T286 149Q318 149 336 169Z" />
<glyph unicode="1" glyph-name="one" horiz-adv-x="356" d="M137 700T148 700H311Q318 700 322 696T326 685V15Q326 8 322 4T311 0H153Q146 0 142 4T138 15V524Q138 526 137 528T133 529L38 510H34Q22 510 22 524V639Q22 653 34 657L129 696Q137 700 148 700Z" />
<glyph unicode="2" glyph-name="two" horiz-adv-x="576" d="M288 165T289 163T293 161H531Q538 161 542 157T546 146V15Q546 8 542 4T531 0H51Q44 0 40 4T36 15V138Q36 149 44 156Q89 195 134 241T192 299Q192 299 259 366Q349 454 349 492Q349 516 331 531T285
547Q256 547 238 532T220 490V470Q220 463 216 459T205 455H45Q38 455 34 459T30 470V520Q34 577 68 619T159 685T285 708Q362 708 420 680T508 603T539 496Q539 455 520 415T462 331Q422 286 334 207L291 167Q288 165 289 163Z" />
<glyph unicode="3" glyph-name="three" horiz-adv-x="556" d="M529 291T529 237Q529 186 508 135Q481 69 419 31T275 -8Q195 -8 133 31T41 137Q24 174 21 225Q21 240 36 240H196Q210 240 212 226Q216 197 225 181Q241 153 274 153Q307 153 324 181Q339 207 339
243Q339 280 325 306Q307 336 273 336Q261 336 248 328T210 302Q206 298 200 298Q193 298 189 305L110 417Q107 422 107 427Q107 434 114 438L260 533Q263 534 262 536T258 539H56Q49 539 45 543T41 554V685Q41 692 45 696T56 700H502Q509 700 513 696T517 685V538Q517
525 508 519L400 444Q395 440 402 437Q476 414 509 337Q529 291 529 237Z" />
<glyph unicode="4" glyph-name="four" horiz-adv-x="641" d="M595 337T599 333T603 322V186Q603 179 599 175T588 171H547Q542 171 542 166V15Q542 8 538 4T527 0H369Q362 0 358 4T354 15V166Q354 171 349 171H37Q30 171 26 175T22 186V292Q22 302 26 311L189
689Q193 700 206 700H375Q383 700 386 695T386 682L241 343Q240 341 241 339T244 337H349Q354 337 354 342V441Q354 448 358 452T369 456H527Q534 456 538 452T542 441V342Q542 337 547 337H588Q595 337 599 333Z" />
<glyph unicode="5" glyph-name="five" horiz-adv-x="555" d="M534 281T534 230Q534 176 514 131Q487 69 424 32T280 -6Q199 -6 137 30T46 131Q34 158 29 193V197Q29 209 43 209H207Q219 209 223 196Q229 185 230 183Q247 155 278 155Q311 155 329 182Q342 202
342 230Q342 255 331 273Q323 285 311 292T283 300Q267 300 251 292T227 271Q221 259 211 259H44Q37 259 33 263T29 274V685Q29 692 33 696T44 700H497Q504 700 508 696T512 685V554Q512 547 508 543T497 539H222Q217 539 217 534V445Q217 439 223 442Q259 462
308 462Q378 462 433 426T515 327Q534 281 534 230Z" />
<glyph unicode="6" glyph-name="six" horiz-adv-x="552" d="M531 290T531 230Q531 174 512 131Q485 69 422 32T278 -6Q199 -6 137 30T47 131Q27 175 27 230V524Q27 578 57 620T143 685T272 708Q343 708 397 685T482 620T513 524V489Q513 482 509 478T498 474H340Q333
474 329 478T325 489V496Q325 517 310 532T271 547Q247 547 231 532T215 496V431Q215 428 217 427T221 428Q257 453 314 453Q376 453 429 421T512 329Q531 290 531 230ZM343 199T343 226Q343 254 328 274Q311 296 280 296Q245 296 229 274Q216 256 216 228Q216
199 229 179Q245 155 278 155Q310 155 328 179Q343 199 343 226Z" />
<glyph unicode="7" glyph-name="seven" horiz-adv-x="511" d="M99 0T96 4T95 17L302 533Q303 535 302 537T298 539H166Q161 539 161 534V489Q161 482 157 478T146 474H24Q17 474 13 478T9 489L10 685Q10 692 14 696T25 700H487Q494 700 498 696T502 685V549Q502
542 498 530L293 12Q289 0 275 0H107Q99 0 96 4Z" />
<glyph unicode="8" glyph-name="eight" horiz-adv-x="556" d="M533 269T533 211Q533 161 511 117Q482 60 423 26T280 -8Q201 -8 138 23T45 116Q23 160 23 212Q23 241 30 268T48 317Q63 345 85 362Q88 365 85 369Q61 392 48 417Q29 455 29 501Q29 578 76 633Q109
672 162 693T279 715Q344 715 395 693T480 633Q528 576 528 501Q528 451 505 412Q489 387 468 370Q465 366 468 363Q494 343 507 317Q533 269 533 211ZM216 509T216 490Q216 469 225 454Q242 427 278 427Q316 427 333 453Q343 469 343 491Q343 509 336 523Q329
537 314 545T278 554Q238 554 223 523Q216 509 216 490ZM343 196T343 229Q343 256 334 272Q317 305 279 305Q241 305 225 272Q216 254 216 227Q216 197 228 179Q245 153 279 153Q311 153 328 176Q343 196 343 229Z" />
<glyph unicode="9" glyph-name="nine" horiz-adv-x="537" d="M510 525T510 470V176Q510 122 480 80T394 15T265 -8Q194 -8 140 15T55 80T24 176V211Q24 218 28 222T39 226H197Q204 226 208 222T212 211V204Q212 183 227 168T266 153Q290 153 306 168T322 204V269Q322
272 320 273T316 272Q280 247 223 247Q161 247 108 279T25 371Q6 410 6 470Q6 526 25 569Q52 631 115 668T259 706Q338 706 400 670T490 569Q510 525 510 470ZM321 444T321 472Q321 502 308 521Q292 545 259 545Q227 545 209 521Q194 501 194 474Q194 446 209 426Q225
404 257 404Q292 404 308 426Q321 444 321 472Z" />
<glyph unicode=":" glyph-name="colon" horiz-adv-x="381" d="M145 321T119 347T92 415Q92 457 118 483T186 509Q227 509 253 483T280 415Q280 375 253 348T186 321Q145 321 119 347ZM145 0T119 26T92 94Q92 136 118 162T186 188Q227 188 253 162T280 94Q280 54
253 27T186 0Q145 0 119 26Z" />
<glyph unicode=";" glyph-name="semicolon" horiz-adv-x="319" d="M112 291T81 321T49 396Q49 424 65 448T106 486T160 500Q188 500 214 486T256 448T272 396Q272 352 240 322T160 291Q112 291 81 321ZM65 -111T61 -107T58 -95L80 146Q81 160 95 160H232Q240 160
243 156T245 143L183 -98Q180 -111 167 -111H73Q65 -111 61 -107Z" />
<glyph unicode="&lt;" glyph-name="less" horiz-adv-x="476" d="M454 22T450 19T437 19L33 192Q22 198 22 209V345Q22 357 33 362L437 535Q443 537 444 537Q454 537 454 523V377Q454 365 442 360L224 280Q218 277 224 274L442 194Q454 190 454 177V31Q454 22 450 19Z" />
<glyph unicode="=" glyph-name="equal" horiz-adv-x="476" d="M30 295T26 299T22 310V440Q22 447 26 451T37 455H439Q446 455 450 451T454 440V310Q454 303 450 299T439 295H37Q30 295 26 299ZM30 370T26 374T22 385V515Q22 522 26 526T37 530H439Q446 530 450
526T454 515V385Q454 378 450 374T439 370H37Q30 370 26 374Z" />
<glyph unicode="&gt;" glyph-name="greater" horiz-adv-x="476" d="M33 17T32 17Q22 17 22 31V177Q22 190 34 194L252 274Q258 277 252 280L34 360Q22 365 22 377V523Q22 532 26 535T39 535L443 362Q454 357 454 345V209Q454 198 443 192L39 19Q33 17 32 17Z" />
<glyph unicode="?" glyph-name="question" horiz-adv-x="562" d="M178 236T174 240T170 251V264Q170 303 186 332T224 379T282 419Q318 441 334 457T351 494Q351 515 333 527T283 539Q249 539 229 525T208 488V484Q208 470 193 470L35 477Q20 477 20 488Q20 553
54 603T148 682T288 710Q364 710 421 684T510 612T541 503Q541 459 525 428T486 377T427 334Q391 310 374 294T357 252V251Q357 244 353 240T342 236H185Q178 236 174 240ZM216 -5T190 21T163 89Q163 131 189 157T257 183Q298 183 324 157T351 89Q351 49 325 22T257
-5Q216 -5 190 21Z" />
<glyph unicode="@" glyph-name="at" horiz-adv-x="816" d="M569 688T643 648T755 535T794 371Q794 347 791 320Q779 218 730 161T590 103Q518 103 477 141Q474 144 470 141Q450 121 419 112T354 103Q304 103 271 130T229 203Q225 222 225 246Q225 270 228 288Q234
328 249 369Q268 421 306 448T390 475Q437 475 461 446Q466 440 467 447L469 461Q470 475 485 475H578Q593 475 592 459L568 290Q566 272 566 264Q566 217 597 217Q618 217 631 240T651 311Q656 346 656 371Q656 469 603 516T456 564Q336 564 258 491T161 294Q157
267 157 238Q157 140 213 91T368 41Q456 41 506 77Q510 81 516 81Q523 81 527 74L583 -4Q586 -9 586 -13Q586 -21 580 -25Q541 -53 481 -70T357 -87Q263 -87 187 -49T67 62T22 235Q22 263 27 301Q43 414 104 502T260 639T467 688Q569 688 643 648ZM408 206T425
233Q443 262 443 313Q443 332 440 344Q437 356 428 362T406 369Q393 369 383 362T365 343Q356 328 348 283Q346 267 346 257Q346 241 349 233Q359 206 386 206Q408 206 425 233Z" />
<glyph unicode="A" glyph-name="A" horiz-adv-x="714" d="M493 0T490 13L468 91Q466 95 463 95H251Q248 95 246 91L224 13Q221 0 207 0H36Q18 0 23 17L234 688Q238 700 251 700H463Q476 700 480 688L691 17Q692 15 692 11Q692 0 678 0H507Q493 0 490 13ZM289 239T294
239H419Q425 239 423 245L359 469Q358 472 356 472T353 469L290 245Q289 239 294 239Z" />
<glyph unicode="B" glyph-name="B" horiz-adv-x="615" d="M491 361T495 358Q540 333 561 294T582 200Q582 97 510 49T323 0H54Q47 0 43 4T39 15V685Q39 692 43 696T54 700H314Q442 700 506 655T571 502Q571 407 495 364Q491 361 495 358ZM227 539T227 534V434Q227
429 232 429H314Q387 429 387 484Q387 539 314 539H232Q227 539 227 534ZM394 161T394 220Q394 276 324 276H232Q227 276 227 271V166Q227 161 232 161H323Q394 161 394 220Z" />
<glyph unicode="C" glyph-name="C" horiz-adv-x="609" d="M224 -8T162 24T65 114T30 250V452Q30 528 64 586T161 676T306 708Q388 708 450 678T547 594T582 467Q582 458 567 456L409 446H406Q394 446 394 457Q394 498 370 522T306 547Q266 547 242 523T218 457V242Q218
202 242 178T306 153Q346 153 370 177T394 242Q394 248 398 251T409 253L567 245Q582 244 582 235Q582 163 548 108T451 23T306 -8Q224 -8 162 24Z" />
<glyph unicode="D" glyph-name="D" horiz-adv-x="618" d="M47 0T43 4T39 15V685Q39 692 43 696T54 700H311Q392 700 454 672T551 593T585 475V225Q585 158 551 107T455 28T311 0H54Q47 0 43 4ZM227 161T232 161H318Q352 161 374 187T397 257V443Q397 486 375 512T317
539H232Q227 539 227 534V166Q227 161 232 161Z" />
<glyph unicode="E" glyph-name="E" horiz-adv-x="570" d="M546 547T542 543T531 539H232Q227 539 227 534V440Q227 435 232 435H417Q424 435 428 431T432 420V290Q432 283 428 279T417 275H232Q227 275 227 270V166Q227 161 232 161H531Q538 161 542 157T546 146V15Q546
8 542 4T531 0H54Q47 0 43 4T39 15V685Q39 692 43 696T54 700H531Q538 700 542 696T546 685V554Q546 547 542 543Z" />
<glyph unicode="F" glyph-name="F" horiz-adv-x="554" d="M545 547T541 543T530 539H232Q227 539 227 534V440Q227 435 232 435H417Q424 435 428 431T432 420V290Q432 283 428 279T417 275H232Q227 275 227 270V15Q227 8 223 4T212 0H54Q47 0 43 4T39 15V685Q39
692 43 696T54 700H530Q537 700 541 696T545 685V554Q545 547 541 543Z" />
<glyph unicode="G" glyph-name="G" horiz-adv-x="611" d="M224 -8T162 25T65 118T30 256V445Q30 523 64 582T161 675T306 708Q386 708 449 677T546 591T581 473V472Q581 465 577 461T566 457H409Q394 457 394 466Q394 499 371 523T306 547Q266 547 242 521T218
450V250Q218 207 245 180T314 153Q351 153 374 173T398 230V243Q398 248 393 248H305Q298 248 294 252T290 263V383Q290 390 294 394T305 398H566Q573 398 577 394T581 383V246Q581 172 547 114T450 24T306 -8Q224 -8 162 25Z" />
<glyph unicode="H" glyph-name="H" horiz-adv-x="611" d="M393 692T397 696T408 700H566Q573 700 577 696T581 685V15Q581 8 577 4T566 0H408Q401 0 397 4T393 15V269Q393 274 388 274H232Q227 274 227 269V15Q227 8 223 4T212 0H54Q47 0 43 4T39 15V685Q39 692
43 696T54 700H212Q219 700 223 696T227 685V440Q227 435 232 435H388Q393 435 393 440V685Q393 692 397 696Z" />
<glyph unicode="I" glyph-name="I" horiz-adv-x="266" d="M47 0T43 4T39 15V685Q39 692 43 696T54 700H212Q219 700 223 696T227 685V15Q227 8 223 4T212 0H54Q47 0 43 4Z" />
<glyph unicode="J" glyph-name="J" horiz-adv-x="587" d="M198 -8T138 22T45 106T12 232V285Q12 292 16 296T27 300H185Q192 300 196 296T200 285V233Q200 197 221 175T279 153Q315 153 338 175T361 233V685Q361 692 365 696T376 700H533Q540 700 544 696T548
685V232Q548 161 514 107T419 22T279 -8Q198 -8 138 22Z" />
<glyph unicode="K" glyph-name="K" horiz-adv-x="636" d="M47 0T43 4T39 15V685Q39 692 43 696T54 700H212Q219 700 223 696T227 685V446Q227 443 229 442T233 444L407 691Q413 700 426 700H605Q617 700 617 691Q617 687 614 682L406 393Q404 390 406 386L621
18Q624 14 624 9Q624 0 611 0H434Q421 0 416 10L278 256Q277 259 275 259T271 256L229 192Q227 188 227 186V15Q227 8 223 4T212 0H54Q47 0 43 4Z" />
<glyph unicode="L" glyph-name="L" horiz-adv-x="574" d="M47 0T43 4T39 15V685Q39 692 43 696T54 700H212Q219 700 223 696T227 685V166Q227 161 232 161H541Q548 161 552 157T556 146V15Q556 8 552 4T541 0H54Q47 0 43 4Z" />
<glyph unicode="M" glyph-name="M" horiz-adv-x="714" d="M492 700T504 700H660Q667 700 671 696T675 685V15Q675 8 671 4T660 0H502Q495 0 491 4T487 15V378Q487 382 485 382T481 380L413 269Q407 259 395 259H319Q307 259 301 269L233 380Q231 383 229 383T227
378V15Q227 8 223 4T212 0H54Q47 0 43 4T39 15V685Q39 692 43 696T54 700H210Q222 700 228 690L354 487Q357 481 360 487L486 690Q492 700 504 700Z" />
<glyph unicode="N" glyph-name="N" horiz-adv-x="658" d="M431 692T435 696T446 700H604Q611 700 615 696T619 685V15Q619 8 615 4T604 0H453Q441 0 435 10L231 350Q229 353 227 353T225 348L227 15Q227 8 223 4T212 0H54Q47 0 43 4T39 15V685Q39 692 43 696T54
700H205Q217 700 223 690L426 350Q428 347 430 347T432 352L431 685Q431 692 435 696Z" />
<glyph unicode="O" glyph-name="O" horiz-adv-x="621" d="M227 -12T164 21T65 115T30 256V444Q30 522 65 582T163 675T310 708Q394 708 457 675T556 582T591 444V256Q591 176 556 116T458 22T310 -12Q227 -12 164 21ZM352 149T377 176T403 250V446Q403 492 378
519T310 547Q269 547 244 520T218 446V250Q218 204 243 177T310 149Q352 149 377 176Z" />
<glyph unicode="P" glyph-name="P" horiz-adv-x="600" d="M415 700T469 672T552 591T582 470Q582 403 551 352T464 273T335 245H229Q224 245 224 240V15Q224 8 220 4T209 0H51Q44 0 40 4T36 15V685Q36 692 40 696T51 700H344Q415 700 469 672ZM350 395T372 414T395
466Q395 499 373 519T313 539H229Q224 539 224 534V400Q224 395 229 395H313Q350 395 372 414Z" />
<glyph unicode="Q" glyph-name="Q" horiz-adv-x="605" d="M383 708T445 675T541 581T575 440V245Q575 157 529 94T401 6Q397 5 397 1V-72Q397 -79 393 -83T382 -87H224Q217 -87 213 -83T209 -72V0Q209 4 205 5Q123 30 77 93T30 245V440Q30 520 64 580T159 674T302
708Q383 708 445 675ZM218 250Q218 207 241 180T302 153Q340 153 363 179T387 250V450Q387 494 364 520T302 547Q264 547 241 520T218 450V250Z" />
<glyph unicode="R" glyph-name="R" horiz-adv-x="615" d="M394 0T390 11L280 265Q278 269 274 269H232Q227 269 227 264V15Q227 8 223 4T212 0H54Q47 0 43 4T39 15V685Q39 692 43 696T54 700H357Q425 700 476 672T556 594T585 477Q585 411 553 362T463 289Q458
287 460 282L587 18Q589 12 589 11Q589 6 585 3T575 0H407Q394 0 390 11ZM227 539T227 534V417Q227 412 232 412H326Q358 412 378 429T398 475Q398 504 378 521T326 539H232Q227 539 227 534Z" />
<glyph unicode="S" glyph-name="S" horiz-adv-x="602" d="M220 -8T157 19T60 98T25 216V230Q25 237 29 241T40 245H195Q202 245 206 241T210 230V224Q210 196 239 175T318 153Q355 153 371 168T387 203Q387 225 367 236T294 263L265 271Q166 301 99 351T32 496Q32
559 66 607T159 682T293 708Q371 708 434 679T534 597T571 476V467Q571 460 567 456T556 452H401Q394 452 390 456T386 467V468Q386 498 359 522T286 547Q254 547 236 534T217 498Q217 480 230 468T272 444T358 414Q366 411 428 393T533 326T575 208Q575 141 541
93T446 18T304 -8Q220 -8 157 19Z" />
<glyph unicode="T" glyph-name="T" horiz-adv-x="595" d="M569 700T573 696T577 685V553Q577 546 573 542T562 538H394Q389 538 389 533V15Q389 8 385 4T374 0H216Q209 0 205 4T201 15V533Q201 538 196 538H33Q26 538 22 542T18 553V685Q18 692 22 696T33 700H562Q569
700 573 696Z" />
<glyph unicode="U" glyph-name="U" horiz-adv-x="617" d="M228 -8T166 23T69 111T35 243V685Q35 692 39 696T50 700H208Q215 700 219 696T223 685V243Q223 202 246 178T309 153Q347 153 370 178T394 243V685Q394 692 398 696T409 700H567Q574 700 578 696T582
685V243Q582 168 548 111T452 23T309 -8Q228 -8 166 23Z" />
<glyph unicode="V" glyph-name="V" horiz-adv-x="645" d="M231 0T226 3T220 13L23 683Q22 685 22 688Q22 700 36 700H207Q220 700 223 687L323 265Q324 261 326 261T329 265L426 687Q429 700 442 700H609Q617 700 620 696T622 683L423 13Q422 7 417 4T406 0H237Q231
0 226 3Z" />
<glyph unicode="W" glyph-name="W" horiz-adv-x="937" d="M232 0T227 3T221 13L23 683Q22 685 22 688Q22 700 36 700H206Q219 700 222 687L307 361Q308 358 310 358T313 361L380 687Q383 700 397 700H543Q556 700 559 687L634 361Q635 357 637 357T640 361L715
687Q718 700 731 700H902Q910 700 913 696T915 683L737 13Q734 0 721 0H561Q547 0 544 13L472 357Q471 360 469 360T466 357L403 14Q400 0 387 0H238Q232 0 227 3Z" />
<glyph unicode="X" glyph-name="X" horiz-adv-x="659" d="M32 0T29 2T25 9Q25 14 28 18L210 347Q212 350 210 353L28 682Q25 687 25 691Q25 695 28 697T38 700H211Q224 700 229 689L327 500Q330 496 333 500L431 689Q437 700 449 700H621Q627 700 630 698T634
691Q634 687 631 682L450 353Q449 350 450 347L631 18Q634 14 634 9Q634 5 631 3T621 0H450Q438 0 432 11L333 199Q330 204 327 199L228 11Q223 0 210 0H38Q32 0 29 2Z" />
<glyph unicode="Y" glyph-name="Y" horiz-adv-x="651" d="M239 2T235 6T231 17V238L230 244L26 682L24 690Q24 700 37 700H209Q222 700 227 688L322 449Q325 442 328 449L423 688Q428 700 441 700H614Q627 700 627 690L625 682L419 244Q418 242 418 238V17Q418
10 414 6T403 2H246Q239 2 235 6Z" />
<glyph unicode="Z" glyph-name="Z" horiz-adv-x="562" d="M32 0T28 4T24 15V160Q24 170 31 178L322 533Q324 535 323 537T319 539H39Q32 539 28 543T24 554V685Q24 692 28 696T39 700H520Q527 700 531 696T535 685V541Q535 529 528 522L235 167Q233 165 234 163T238
161H520Q527 161 531 157T535 146V15Q535 8 531 4T520 0H39Q32 0 28 4Z" />
<glyph unicode="[" glyph-name="bracketleft" horiz-adv-x="441" d="M44 -164T40 -160T36 -149V803Q36 810 40 814T51 818H316Q323 818 327 814T331 803V672Q331 665 327 661T316 657H229Q224 657 224 652V2Q224 -3 229 -3H316Q323 -3 327 -7T331 -18V-149Q331
-156 327 -160T316 -164H51Q44 -164 40 -160Z" />
<glyph unicode="\" glyph-name="backslash" horiz-adv-x="521" d="M503 15T503 11Q503 0 490 0H334Q321 0 316 12L37 683Q36 686 36 690Q36 700 49 700H204Q218 700 222 688L502 17Q503 15 503 11Z" />
<glyph unicode="]" glyph-name="bracketright" horiz-adv-x="441" d="M405 -156T401 -160T390 -164H125Q118 -164 114 -160T110 -149V-18Q110 -11 114 -7T125 -3H212Q217 -3 217 2V652Q217 657 212 657H125Q118 657 114 661T110 672V803Q110 810 114 814T125 818H390Q397
818 401 814T405 803V-149Q405 -156 401 -160Z" />
<glyph unicode="^" glyph-name="asciicircum" horiz-adv-x="488" d="M32 291T29 295T28 308L161 688Q165 700 178 700H307Q320 700 324 688L460 308Q461 305 461 301Q461 291 448 291H320Q306 291 303 304L247 503Q246 506 244 506T241 503L185 304Q182 291 168
291H40Q32 291 29 295Z" />
<glyph unicode="_" glyph-name="underscore" horiz-adv-x="549" d="M20 0T16 4T12 15V125Q12 132 16 136T27 140H522Q529 140 533 136T537 125V15Q537 8 533 4T522 0H27Q20 0 16 4Z" />
<glyph unicode="`" glyph-name="grave" horiz-adv-x="258" d="M239 591T239 590Q239 579 226 579H114Q102 579 96 588L26 682Q23 687 23 691Q23 700 35 700H170Q182 700 188 689L237 597Q239 591 239 590Z" />
<glyph unicode="a" glyph-name="a" horiz-adv-x="540" d="M327 528T384 505T474 442T507 355V15Q507 8 503 4T492 0H334Q327 0 323 4T319 15V50Q319 54 318 54T314 52Q297 21 267 7T188 -8Q106 -8 59 29T12 139Q12 215 65 256T221 297H314Q319 297 319 302V320Q319
341 304 354T262 367Q244 367 230 361T210 345Q206 338 203 336T193 334L32 354Q18 356 18 366Q22 411 54 448T139 506T259 528Q327 528 384 505ZM278 122T298 139T319 185V198Q319 203 314 203H264Q201 203 201 162Q201 144 212 133T246 122Q278 122 298 139Z"
/>
<glyph unicode="b" glyph-name="b" horiz-adv-x="579" d="M557 334T557 262Q557 200 542 150Q520 77 467 35T346 -8Q267 -8 230 47Q228 50 226 49T224 45V15Q224 8 220 4T209 0H51Q44 0 40 4T36 15V685Q36 692 40 696T51 700H209Q216 700 220 696T224 685V484Q224
481 226 481T230 482Q265 528 338 528Q409 528 460 490T535 390Q557 334 557 262ZM360 215T360 259Q360 306 345 334Q328 367 292 367Q258 367 240 336Q224 307 224 259Q224 215 239 187Q257 153 292 153Q327 153 345 186Q360 215 360 259Z" />
<glyph unicode="c" glyph-name="c" horiz-adv-x="549" d="M197 -8T134 33T42 149Q22 200 22 263Q22 325 42 376Q70 447 134 487T282 528Q367 528 432 486T521 379Q528 361 530 341V338Q530 328 517 325L362 300H359Q346 300 345 313L341 327Q336 344 320 355T281
367Q241 367 224 331Q212 306 212 262Q212 221 223 193Q240 153 281 153Q325 153 341 199L342 203Q345 220 359 217L515 191Q528 188 528 177Q528 165 521 144Q495 71 431 32T282 -8Q197 -8 134 33Z" />
<glyph unicode="d" glyph-name="d" horiz-adv-x="579" d="M355 692T359 696T370 700H528Q535 700 539 696T543 685V15Q543 8 539 4T528 0H370Q363 0 359 4T355 15V45Q355 48 353 49T349 47Q312 -8 233 -8Q166 -8 113 34T37 150Q22 200 22 262Q22 334 44 390Q68
451 119 489T241 528Q314 528 349 482Q351 480 353 480T355 484V685Q355 692 359 696ZM355 216T355 259Q355 307 339 336Q321 367 287 367Q251 367 234 334Q219 306 219 259Q219 214 234 186Q252 153 287 153Q322 153 340 187Q355 216 355 259Z" />
<glyph unicode="e" glyph-name="e" horiz-adv-x="552" d="M535 275T535 252Q535 236 534 227Q534 213 519 213H219Q215 213 215 209Q215 200 223 188Q233 171 258 160T316 148Q343 148 366 156T405 179Q410 183 415 183Q422 183 426 177L502 80Q506 75 506 69Q506
63 501 59Q466 25 414 9T302 -8Q209 -8 143 31T47 142Q25 194 25 254Q25 317 43 366Q70 442 132 485T278 528Q342 528 396 498T486 416T532 297Q535 275 535 252ZM236 367T220 327L216 316Q215 313 217 312T221 310H335Q339 310 339 314Q339 318 336 327Q331 346
316 356T277 367Q236 367 220 327Z" />
<glyph unicode="f" glyph-name="f" horiz-adv-x="407" d="M379 520T383 516T387 505V385Q387 378 383 374T372 370H284Q279 370 279 365V15Q279 8 275 4T264 0H106Q99 0 95 4T91 15V365Q91 370 86 370H35Q28 370 24 374T20 385V505Q20 512 24 516T35 520H86Q91
520 91 525V556Q91 633 134 667T278 701Q303 701 316 700H358Q365 700 369 696T373 685V590Q373 583 369 579T358 575H316Q296 573 288 565T279 539V525Q279 520 284 520H372Q379 520 383 516Z" />
<glyph unicode="g" glyph-name="g" horiz-adv-x="569" d="M348 512T352 516T363 520H521Q528 520 532 516T536 505V68Q536 -75 454 -135T246 -196Q190 -196 141 -187Q128 -184 128 -170L134 -35Q134 -18 152 -23Q194 -34 231 -34Q279 -34 310 -14T347 47Q348 51
346 52T340 50Q306 18 242 18Q82 18 38 148Q21 198 21 265Q21 339 42 391Q66 454 117 491T236 528Q305 528 342 486Q344 484 346 484T348 488V505Q348 512 352 516ZM348 223T348 266Q348 306 337 331Q320 367 280 367Q245 367 227 332Q211 304 211 263Q211 223
224 198Q242 163 282 163Q322 163 338 197Q348 223 348 266Z" />
<glyph unicode="h" glyph-name="h" horiz-adv-x="552" d="M395 528T435 506T498 442T522 341V15Q522 8 518 4T507 0H349Q342 0 338 4T334 15V300Q334 330 319 348T278 367Q252 367 237 349T221 300V15Q221 8 217 4T206 0H48Q41 0 37 4T33 15V685Q33 692 37 696T48
700H206Q213 700 217 696T221 685V469Q221 465 223 464T226 466Q264 528 345 528Q395 528 435 506Z" />
<glyph unicode="i" glyph-name="i" horiz-adv-x="254" d="M87 555T61 581T34 649Q34 691 60 717T128 743Q169 743 195 717T222 649Q222 609 196 582T128 555Q87 555 61 581ZM41 0T37 4T33 15V505Q33 512 37 516T48 520H206Q213 520 217 516T221 505V15Q221 8 217
4T206 0H48Q41 0 37 4Z" />
<glyph unicode="j" glyph-name="j" horiz-adv-x="260" d="M93 555T67 581T40 649Q40 691 66 717T134 743Q175 743 201 717T228 649Q228 609 202 582T134 555Q93 555 67 581ZM-76 -201T-76 -186V-60Q-76 -45 -60 -45Q-51 -46 -35 -46Q10 -46 26 -30T43 26L40 505Q40
512 44 516T55 520H213Q220 520 224 516T228 505V29Q228 -63 207 -111T132 -180T-25 -201H-61Q-76 -201 -76 -186Z" />
<glyph unicode="k" glyph-name="k" horiz-adv-x="555" d="M41 0T37 4T33 15V685Q33 692 37 696T48 700H206Q213 700 217 696T221 685V398Q221 395 223 394T227 396L312 511Q318 520 330 520H510Q516 520 519 518T523 511Q523 507 520 502L391 328Q389 325 391
321L538 18L540 10Q540 0 527 0H362Q349 0 344 12L263 204Q262 206 260 206T256 205L223 149Q221 145 221 143V15Q221 8 217 4T206 0H48Q41 0 37 4Z" />
<glyph unicode="l" glyph-name="l" horiz-adv-x="254" d="M41 0T37 4T33 15V685Q33 692 37 696T48 700H206Q213 700 217 696T221 685V15Q221 8 217 4T206 0H48Q41 0 37 4Z" />
<glyph unicode="m" glyph-name="m" horiz-adv-x="845" d="M727 528T771 479T815 341V15Q815 8 811 4T800 0H642Q635 0 631 4T627 15V300Q627 330 613 348T575 367Q551 367 536 349T521 300V15Q521 8 517 4T506 0H348Q341 0 337 4T333 15V300Q333 330 318 348T277
367Q255 367 241 354T222 317Q221 315 221 311V15Q221 8 217 4T206 0H48Q41 0 37 4T33 15V505Q33 512 37 516T48 520H206Q213 520 217 516T221 505V455Q221 451 223 451T227 454Q265 528 355 528Q406 528 444 505T503 437Q506 432 509 438Q529 483 564 505T648
528Q727 528 771 479Z" />
<glyph unicode="n" glyph-name="n" horiz-adv-x="552" d="M395 528T435 506T498 442T522 341V15Q522 8 518 4T507 0H349Q342 0 338 4T334 15V300Q334 330 319 348T278 367Q252 367 237 349T221 300V15Q221 8 217 4T206 0H48Q41 0 37 4T33 15V505Q33 512 37 516T48
520H206Q213 520 217 516T221 505V469Q221 465 223 464T226 466Q264 528 345 528Q395 528 435 506Z" />
<glyph unicode="o" glyph-name="o" horiz-adv-x="558" d="M184 -8T119 43T32 181Q22 217 22 261Q22 310 34 350Q58 433 122 480T280 528Q373 528 436 481T524 352Q536 310 536 263Q536 225 528 187Q507 97 442 45T279 -8Q184 -8 119 43ZM305 153T321 170T343 217Q347
236 347 262Q347 285 342 308Q327 367 279 367Q229 367 216 308Q211 291 211 262Q211 236 215 217Q230 153 279 153Q305 153 321 170Z" />
<glyph unicode="p" glyph-name="p" horiz-adv-x="579" d="M557 320T557 258Q557 186 535 130Q511 69 460 31T338 -8Q265 -8 230 38Q228 40 226 40T224 36V-165Q224 -172 220 -176T209 -180H51Q44 -180 40 -176T36 -165V505Q36 512 40 516T51 520H209Q216 520 220
516T224 505V475Q224 472 226 471T230 473Q267 528 346 528Q413 528 466 486T542 370Q557 320 557 258ZM360 215T360 261Q360 306 345 334Q327 367 292 367Q257 367 239 333Q224 305 224 261Q224 213 240 184Q258 153 292 153Q328 153 345 186Q360 215 360 261Z"
/>
<glyph unicode="q" glyph-name="q" horiz-adv-x="579" d="M355 512T359 516T370 520H528Q535 520 539 516T543 505V-165Q543 -172 539 -176T528 -180H370Q363 -180 359 -176T355 -165V36Q355 39 353 39T349 38Q314 -8 241 -8Q170 -8 119 30T44 130Q22 186 22 258Q22
320 37 370Q59 443 112 485T233 528Q312 528 349 473Q351 470 353 471T355 475V505Q355 512 359 516ZM355 213T355 261Q355 305 340 333Q322 367 287 367Q252 367 234 334Q219 306 219 261Q219 214 234 186Q251 153 287 153Q321 153 339 184Q355 213 355 261Z"
/>
<glyph unicode="r" glyph-name="r" horiz-adv-x="396" d="M359 527T379 514Q388 509 386 495L362 341Q361 333 357 331T344 331Q326 335 312 335Q297 335 284 332Q258 327 240 311T221 266V15Q221 8 217 4T206 0H48Q41 0 37 4T33 15V505Q33 512 37 516T48 520H206Q213
520 217 516T221 505V481Q221 478 223 477T226 478Q264 527 325 527Q359 527 379 514Z" />
<glyph unicode="s" glyph-name="s" horiz-adv-x="518" d="M153 -8T88 36T22 153V162Q22 169 26 173T37 177H187Q202 177 202 166Q202 150 219 140T265 130Q287 130 300 136T314 155Q314 169 298 174T241 187Q203 192 173 199T115 220Q29 262 29 352Q29 433 92
480T258 528Q328 528 380 506T462 442T491 347Q491 336 476 336H331Q316 336 316 347Q316 364 301 373T261 383Q238 383 224 376T209 355Q209 339 228 333T289 321Q294 320 327 315T392 299Q446 280 474 247T503 159Q503 77 439 35T266 -8Q153 -8 88 36Z" />
<glyph unicode="t" glyph-name="t" horiz-adv-x="391" d="M373 378T369 374T358 370H275Q270 370 270 365V208Q270 158 306 158H343Q350 158 354 154T358 143V15Q358 1 343 -1Q304 -4 268 -4Q177 -4 134 24T90 130V365Q90 370 85 370H31Q24 370 20 374T16 385V505Q16
512 20 516T31 520H85Q90 520 90 525V645Q90 652 94 656T105 660H255Q262 660 266 656T270 645V525Q270 520 275 520H358Q365 520 369 516T373 505V385Q373 378 369 374Z" />
<glyph unicode="u" glyph-name="u" horiz-adv-x="552" d="M331 512T335 516T346 520H504Q511 520 515 516T519 505V15Q519 8 515 4T504 0H346Q339 0 335 4T331 15V48Q331 51 329 52T325 50Q284 -8 197 -8Q121 -8 76 41T31 179V505Q31 512 35 516T46 520H204Q211
520 215 516T219 505V220Q219 190 234 172T275 153Q297 153 311 166T330 203Q331 205 331 209V505Q331 512 335 516Z" />
<glyph unicode="v" glyph-name="v" horiz-adv-x="550" d="M174 0T170 12L17 503Q16 505 16 509Q16 520 30 520H202Q216 520 219 507L272 259Q273 255 275 255T278 259L331 507Q334 520 348 520L520 518Q528 518 531 514T533 501L381 12Q377 0 364 0H187Q174 0 170 12Z" />
<glyph unicode="w" glyph-name="w" horiz-adv-x="825" d="M172 0T167 3T161 13L17 503Q16 505 16 508Q16 520 30 520H192Q206 520 209 507L258 265Q259 261 261 261T264 265L318 507Q321 520 335 520H478Q491 520 494 507L552 264Q553 260 555 260T558 264L616
507Q619 520 632 520L795 518Q803 518 806 514T808 501L661 13Q660 7 655 4T644 0H480Q466 0 463 13L408 211Q407 214 405 214T402 211L358 13Q355 0 341 0H178Q172 0 167 3Z" />
<glyph unicode="x" glyph-name="x" horiz-adv-x="578" d="M25 0T22 2T18 9Q18 14 21 18L177 257Q179 260 177 263L21 502Q18 507 18 511Q18 515 21 517T31 520H199Q211 520 217 510L280 409Q283 403 286 409L349 510Q355 520 367 520H547Q553 520 556 518T560
511Q560 507 557 502L401 263Q400 260 401 257L557 18Q560 14 560 9Q560 5 557 3T547 0H379Q367 0 361 10L298 111Q295 117 292 111L229 10Q223 0 211 0H31Q25 0 22 2Z" />
<glyph unicode="y" glyph-name="y" horiz-adv-x="534" d="M41 -199T39 -195T37 -184V-60Q37 -45 48 -45Q114 -45 141 -37T173 -3L172 3L14 503Q13 505 13 509Q13 520 27 520H195Q209 520 212 507L266 240Q267 236 269 236T272 240L326 507Q329 520 343 520H507Q524
520 519 503L356 -2Q330 -79 301 -119T215 -179T51 -199H44Q41 -199 39 -195Z" />
<glyph unicode="z" glyph-name="z" horiz-adv-x="470" d="M26 0T22 4T18 15V159Q18 170 26 177L211 344Q213 346 213 348T209 350H40Q33 350 29 354T25 365V505Q25 512 29 516T40 520H426Q433 520 437 516T441 505V361Q441 350 433 343L239 176Q237 174 237 172T241
170H434Q441 170 445 166T449 155V15Q449 8 445 4T434 0H33Q26 0 22 4Z" />
<glyph unicode="{" glyph-name="braceleft" horiz-adv-x="425" d="M193 -164T155 -130T116 -34V166Q116 208 100 229T51 255Q36 257 36 271V387Q36 402 51 403Q84 407 100 428T116 491V688Q116 750 154 784T266 818H374Q381 818 385 814T389 803V672Q389 665 385
661T374 657H356Q334 657 319 641T304 601V462Q304 410 289 379T239 332Q233 329 239 326Q273 310 288 279T304 195V53Q304 29 319 13T356 -3H374Q381 -3 385 -7T389 -18V-149Q389 -156 385 -160T374 -164H266Q193 -164 155 -130Z" />
<glyph unicode="|" glyph-name="bar" horiz-adv-x="228" d="M28 -80T24 -76T20 -65V745Q20 752 24 756T35 760H193Q200 760 204 756T208 745V-65Q208 -72 204 -76T193 -80H35Q28 -80 24 -76Z" />
<glyph unicode="}" glyph-name="braceright" horiz-adv-x="425" d="M51 -164Q44 -164 40 -160T36 -149V-18Q36 -11 40 -7T51 -3H69Q91 -3 106 13T121 53V195Q121 247 136 278T186 326Q192 329 186 332Q152 348 137 379T121 462V601Q121 625 106 641T69 657H51Q44
657 40 661T36 672V803Q36 810 40 814T51 818H159Q232 818 270 784T309 688V491Q309 450 325 429T374 403Q389 402 389 387V271Q389 257 374 255Q341 251 325 230T309 166V-34Q309 -96 271 -130T159 -164H51Z" />
<glyph unicode="~" glyph-name="asciitilde" horiz-adv-x="557" d="M325 180T285 203Q256 219 238 227T199 236Q165 236 141 204Q136 197 130 197Q125 197 121 200L33 261Q22 269 26 280Q44 331 91 364T192 397Q216 397 235 391T275 372Q282 368 297 359T325 346T349
341Q379 341 401 372Q407 380 414 380Q417 380 422 377L524 312Q535 304 531 292Q512 243 465 212T364 180Q325 180 285 203Z" />
<glyph unicode="&#xa0;" glyph-name="uni00A0" horiz-adv-x="200" />
<glyph unicode="&#xa1;" glyph-name="exclamdown" horiz-adv-x="360" d="M214 708T240 682T267 614Q267 572 241 546T173 520Q132 520 106 546T79 614Q79 655 105 681T173 708Q214 708 240 682ZM105 452T109 456T121 460H240Q247 460 251 456T256 445L274 23Q274
8 260 8H102Q88 8 88 23L105 445Q105 452 109 456Z" />
<glyph unicode="&#xa2;" glyph-name="cent" horiz-adv-x="549" d="M241 457T224 421Q212 396 212 352Q212 311 223 283Q240 243 281 243Q325 243 341 289L342 293Q345 310 359 307L515 281Q528 278 528 267Q528 255 521 234Q503 181 462 145T364 93Q360 92 360
88L362 7Q362 0 358 -4T347 -8H213Q206 -8 202 -4T198 7L200 89Q200 93 196 94Q142 112 102 149T42 239Q22 290 22 353Q22 415 42 466Q61 516 100 551T192 605Q196 606 196 610L194 689Q194 696 198 700T209 704H343Q350 704 354 700T358 689L356 613Q356 609 360
608Q419 592 461 555T521 469Q528 451 530 431V428Q530 418 517 415L362 390H359Q346 390 345 403L341 417Q336 434 320 445T281 457Q241 457 224 421Z" />
<glyph unicode="&#xa3;" glyph-name="sterling" horiz-adv-x="617" d="M306 218T298 201T274 167Q272 165 273 163T277 161H575Q582 161 586 157T590 146V15Q590 8 586 4T575 0H87Q80 0 76 4T72 15V149Q72 161 82 168Q103 184 110 201T118 245V268Q118 273 113
273H54Q47 273 43 277T39 288V409Q39 416 43 420T54 424H113Q118 424 118 429V475Q118 586 184 647T360 708Q450 708 508 662T594 536Q595 534 595 530Q595 521 583 518L437 492H433Q422 492 418 504Q408 529 395 538T362 547Q306 547 306 479V429Q306 424 311
424H486Q493 424 497 420T501 409V288Q501 281 497 277T486 273H311Q306 273 306 268V245Q306 218 298 201Z" />
<glyph unicode="&#xa4;" glyph-name="currency" horiz-adv-x="610" d="M537 254T517 209Q516 205 518 202L584 136Q589 131 589 126Q589 120 583 115L486 30Q481 25 476 25Q470 25 465 30L404 90Q401 93 397 91Q352 71 302 71Q254 71 210 89Q206 91 203 88L145
30Q140 25 134 25Q129 25 124 30L27 115Q21 120 21 126Q21 131 26 136L88 197Q91 200 89 204Q66 252 66 305Q66 358 87 401Q89 406 86 408L20 473Q15 478 15 483Q15 490 21 494L118 579Q123 584 128 584Q134 584 139 579L198 520Q201 518 205 519Q251 539 302 539Q355
539 402 517Q407 516 409 518L471 579Q476 584 482 584Q487 584 492 579L589 494Q595 490 595 483Q595 478 590 473L520 403Q518 401 519 396Q537 354 537 305Q537 254 517 209ZM377 336T355 358T302 381Q271 381 249 359T226 305Q226 274 248 252T302 229Q333
229 355 251T378 305Q377 336 355 358Z" />
<glyph unicode="&#xa5;" glyph-name="yen" horiz-adv-x="684" d="M648 700T648 690L646 682L484 337Q483 335 484 333T488 331H559Q566 331 570 327T574 316V245Q574 238 570 234T559 230H444Q439 230 439 225V195Q439 190 444 190H559Q566 190 570 186T574 175V104Q574
97 570 93T559 89H444Q439 89 439 84V17Q439 10 435 6T424 2H267Q260 2 256 6T252 17V84Q252 89 247 89H133Q126 89 122 93T118 104V175Q118 182 122 186T133 190H247Q252 190 252 195V225Q252 230 247 230H133Q126 230 122 234T118 245V316Q118 323 122 327T133
331H204Q206 331 207 333T207 337L47 682L45 690Q45 700 58 700H230Q243 700 248 688L343 449Q346 442 349 449L444 688Q449 700 462 700H635Q648 700 648 690Z" />
<glyph unicode="&#xa6;" glyph-name="brokenbar" horiz-adv-x="228" d="M28 405T24 409T20 420V745Q20 752 24 756T35 760H193Q200 760 204 756T208 745V420Q208 413 204 409T193 405H35Q28 405 24 409ZM28 -80T24 -76T20 -65V260Q20 267 24 271T35 275H193Q200
275 204 271T208 260V-65Q208 -72 204 -76T193 -80H35Q28 -80 24 -76Z" />
<glyph unicode="&#xa7;" glyph-name="section" horiz-adv-x="522" d="M150 -208T92 -162T30 -36L28 9Q28 24 42 24H200Q207 24 211 20T215 9V-4Q215 -24 227 -36T262 -48Q281 -48 293 -39T306 -13Q306 4 288 15T214 49L185 61Q132 83 103 101T53 147Q25 186 25
239Q25 296 56 339Q76 365 109 382Q113 385 109 389Q26 437 26 526Q26 576 56 617T140 683T261 708Q326 708 378 685T460 620T490 523V497Q490 490 486 486T475 482H317Q310 482 306 486T302 497V502Q302 523 290 535T257 547Q239 547 227 538T214 511Q214 493
227 481T256 464T315 443Q360 428 392 413T448 376Q495 332 495 261Q495 237 488 213T466 168Q441 127 408 117Q405 116 405 115T407 111Q453 81 473 48T494 -30Q494 -86 462 -126T376 -187T253 -208Q150 -208 92 -162ZM286 212T298 226Q307 235 307 251Q307 264
300 274Q287 290 260 290Q233 290 221 275Q213 265 213 251Q213 235 223 225Q236 212 260 212Q286 212 298 226Z" />
<glyph unicode="&#xa8;" glyph-name="dieresis" horiz-adv-x="430" d="M283 564T257 590T230 658Q230 700 256 726T324 752Q365 752 391 726T418 658Q418 618 391 591T324 564Q283 564 257 590ZM65 564T39 590T12 658Q12 700 38 726T106 752Q147 752 173 726T200
658Q200 618 173 591T106 564Q65 564 39 590Z" />
<glyph unicode="&#xa9;" glyph-name="copyright" horiz-adv-x="782" d="M288 -8T206 39T77 169T30 356Q30 455 77 535T206 662T390 708Q493 708 575 662T705 536T752 356Q752 251 705 169T576 39T390 -8Q288 -8 206 39ZM457 115T511 146T595 231T626 355Q626 420
596 472T511 555T390 585Q324 585 271 555T187 473T156 355Q156 286 186 232T270 146T390 115Q457 115 511 146ZM334 177T298 210T261 299V406Q261 462 297 494T393 527Q453 527 488 497T524 414Q524 412 520 410T509 408L443 406Q428 406 428 411Q428 427 419
437T393 447Q377 447 368 437T358 411V293Q358 277 367 268T393 258Q409 258 418 267T428 293Q428 299 443 299L509 297Q516 297 520 295T524 290Q524 238 488 208T393 177Q334 177 298 210Z" />
<glyph unicode="&#xaa;" glyph-name="ordfeminine" horiz-adv-x="334" d="M206 569Q211 569 211 574V577Q211 598 196 610T159 623Q143 623 131 617T113 601Q110 594 106 591T96 589L28 595Q21 596 17 600T14 610Q19 652 59 680T157 708Q199 708 233 693T288 651T309
594V376Q309 369 305 365T294 361H226Q211 361 211 372V375Q211 378 209 379T205 378Q177 355 127 355Q70 355 39 381T7 454Q7 507 45 538T149 569H206ZM175 432T193 448T211 482V491Q211 496 206 496H165Q136 496 121 489T106 463Q106 432 146 432Q175 432 193
448ZM6 302T10 306T21 310H302Q309 310 313 306T317 295V245Q317 238 313 234T302 230H21Q14 230 10 234T6 245V295Q6 302 10 306Z" />
<glyph unicode="&#xab;" glyph-name="guillemotleft" horiz-adv-x="488" d="M270 117Q270 107 257 107H135Q123 107 118 118L44 271Q42 279 42 281Q42 285 44 291L118 444Q123 455 135 455H257Q270 455 270 445L268 437L192 284Q191 281 192 278L268 125L270 117ZM451
117Q451 107 438 107H316Q304 107 299 118L225 271Q223 279 223 281Q223 285 225 291L299 444Q304 455 316 455H438Q451 455 451 445L449 437L373 284Q372 281 373 278L449 125L451 117Z" />
<glyph unicode="&#xac;" glyph-name="logicalnot" horiz-adv-x="476" d="M22 364T26 368T37 372H439Q446 372 450 368T454 357V120Q454 113 450 109T439 105H309Q302 105 298 109T294 120V207Q294 212 289 212H37Q30 212 26 216T22 227V357Q22 364 26 368Z" />
<glyph unicode="&#xad;" glyph-name="uni00AD" horiz-adv-x="419" d="M30 205T26 209T22 220V350Q22 357 26 361T37 365H382Q389 365 393 361T397 350V220Q397 213 393 209T382 205H37Q30 205 26 209Z" />
<glyph unicode="&#xae;" glyph-name="registered" horiz-adv-x="440" d="M279 708T326 682T401 610T428 507Q428 446 401 398T327 323T220 296Q161 296 114 323T39 398T12 507Q12 564 39 610T113 682T220 708Q279 708 326 682ZM278 369T316 407T354 507Q354 562
316 598T220 635Q162 635 125 599T87 507Q87 446 124 408T220 369Q278 369 316 407ZM296 504T273 489Q271 488 270 487T270 483L288 428Q289 426 289 422Q289 411 276 411H247Q233 411 230 424L216 474Q215 475 215 476T214 478Q212 478 212 473V426Q212 419 208
415T197 411H170Q163 411 159 415T155 426V584Q155 591 159 595T170 599H233Q261 599 278 582T296 537Q296 504 273 489ZM217 551Q212 551 212 546V525Q212 520 217 520H224Q230 520 234 525T239 536Q239 543 235 547T224 551H217Z" />
<glyph unicode="&#xaf;" glyph-name="overscore" horiz-adv-x="311" d="M8 567T4 571T0 582V677Q0 684 4 688T15 692H296Q303 692 307 688T311 677V582Q311 575 307 571T296 567H15Q8 567 4 571Z" />
<glyph unicode="&#xb0;" glyph-name="degree" horiz-adv-x="373" d="M138 460T98 483T35 547T12 635Q12 683 35 722T98 785T186 808Q235 808 275 785T338 723T361 635Q361 587 338 547T275 483T186 460Q138 460 98 483ZM210 579T226 595T242 635Q242 660 226 676T186
692Q163 692 147 676T130 635Q130 611 146 595T186 579Q210 579 226 595Z" />
<glyph unicode="&#xb1;" glyph-name="plusminus" horiz-adv-x="476" d="M446 505T450 501T454 490V360Q454 353 450 349T439 345H323Q318 345 318 340V224Q318 217 314 213T303 209H173Q166 209 162 213T158 224V340Q158 345 153 345H37Q30 345 26 349T22 360V490Q22
497 26 501T37 505H153Q158 505 158 510V626Q158 633 162 637T173 641H303Q310 641 314 637T318 626V510Q318 505 323 505H439Q446 505 450 501ZM30 0T26 4T22 15V145Q22 152 26 156T37 160H439Q446 160 450 156T454 145V15Q454 8 450 4T439 0H37Q30 0 26 4Z" />
<glyph unicode="&#xb2;" glyph-name="uni00B2" horiz-adv-x="355" d="M36 399T32 403T28 414V488Q28 499 37 506Q82 545 161 620Q215 671 215 693Q215 706 206 714T180 723Q164 723 154 714T143 691V686Q143 679 139 675T128 671H39Q32 671 28 675T24 686V710Q28
762 72 793T180 824Q227 824 262 807T315 760T334 695Q334 671 323 648T289 598Q267 574 192 506Q190 504 190 502T194 500H323Q330 500 334 496T338 485V414Q338 407 334 403T323 399H43Q36 399 32 403Z" />
<glyph unicode="&#xb3;" glyph-name="uni00B3" horiz-adv-x="325" d="M316 576T316 541Q316 508 304 479Q287 440 250 417T163 393Q114 393 76 416T20 481Q10 503 9 528V530Q9 543 23 543H113Q126 543 128 529Q132 513 136 508Q145 494 163 494Q180 494 189 508Q198
523 198 544Q198 567 189 582Q180 597 162 597Q150 597 133 588Q128 584 123 584Q116 584 112 590L69 642Q65 648 65 651Q65 657 73 663L151 711Q154 713 154 715T149 717H36Q29 717 25 721T21 732V803Q21 810 25 814T36 818H295Q302 818 306 814T310 803V729Q310
716 301 710L240 668Q237 666 237 664T242 661Q284 647 305 601Q316 576 316 541Z" />
<glyph unicode="&#xb4;" glyph-name="acute" horiz-adv-x="258" d="M24 579T21 584T21 597L70 689Q75 700 88 700H223Q235 700 235 691Q235 687 232 682L162 588Q156 579 144 579H32Q24 579 21 584Z" />
<glyph unicode="&#xb5;" glyph-name="uni00B5" horiz-adv-x="555" d="M334 512T338 516T349 520H507Q514 520 518 516T522 505V15Q522 8 518 4T507 0H349Q342 0 338 4T334 15V48Q334 51 332 52T328 50Q292 0 226 -7Q221 -7 221 -12V-185Q221 -192 217 -196T206
-200H48Q41 -200 37 -196T33 -185V505Q33 512 37 516T48 520H207Q214 520 218 516T222 505V220Q222 190 237 172T278 153Q300 153 314 166T333 203Q334 205 334 209V505Q334 512 338 516Z" />
<glyph unicode="&#xb6;" glyph-name="paragraph" horiz-adv-x="657" d="M612 700Q619 700 623 696T627 685V-185Q627 -192 623 -196T612 -200H506Q499 -200 495 -196T491 -185V564Q491 569 486 569H408Q403 569 403 564V-185Q403 -192 399 -196T388 -200H282Q275
-200 271 -196T267 -185V246Q267 251 262 251Q151 259 85 319T18 475Q18 542 49 593T141 672T286 700H612Z" />
<glyph unicode="&#xb7;" glyph-name="middot" horiz-adv-x="252" d="M85 204T59 230T32 298Q32 340 58 366T126 392Q167 392 193 366T220 298Q220 258 193 231T126 204Q85 204 59 230Z" />
<glyph unicode="&#xb8;" glyph-name="cedilla" horiz-adv-x="189" d="M0 -179T2 -165L10 -101Q12 -90 20 -90L28 -92Q33 -94 42 -94Q54 -94 61 -89T68 -72Q68 -51 27 -18Q19 -12 19 -7Q19 0 31 0H116Q126 0 134 -7Q189 -54 189 -105Q189 -113 185 -131Q175 -167
148 -182T84 -198Q42 -198 11 -184Q0 -179 2 -165Z" />
<glyph unicode="&#xb9;" glyph-name="uni00B9" horiz-adv-x="200" d="M60 819T71 819H164Q171 819 175 815T179 804V414Q179 407 175 403T164 399H76Q69 399 65 403T61 414V713Q61 718 56 718L37 719Q30 719 26 723T22 734V790Q22 804 34 808L52 815Q60 819 71 819Z" />
<glyph unicode="&#xba;" glyph-name="ordmasculine" horiz-adv-x="353" d="M125 356T85 382T25 458Q11 494 11 533Q11 550 14 572T24 609Q42 657 83 682T179 708Q229 708 268 683T327 610Q334 593 338 573T342 535Q342 517 338 496T327 458Q306 409 267 383T178
356Q125 356 85 382ZM200 457T213 484Q222 503 222 533Q222 564 214 580Q200 608 176 608Q154 608 139 580Q131 565 131 533Q131 501 139 484Q151 457 178 457Q200 457 213 484ZM33 230T29 234T25 245V295Q25 302 29 306T40 310H321Q328 310 332 306T336 295V245Q336
238 332 234T321 230H40Q33 230 29 234Z" />
<glyph unicode="&#xbb;" glyph-name="guillemotright" horiz-adv-x="488" d="M46 107T46 117L48 125L124 278Q125 281 124 284L48 437L46 445Q46 455 59 455H181Q193 455 198 444L272 291Q274 288 274 281Q274 275 272 271L198 118Q193 107 181 107H59Q46 107
46 117ZM227 107T227 117L229 125L305 278Q306 281 305 284L229 437L227 445Q227 455 240 455H362Q374 455 379 444L453 291Q455 288 455 281Q455 275 453 271L379 118Q374 107 362 107H240Q227 107 227 117Z" />
<glyph unicode="&#xbc;" glyph-name="onequarter" horiz-adv-x="840" d="M60 700T71 700H164Q171 700 175 696T179 685V295Q179 288 175 284T164 280H76Q69 280 65 284T61 295V594Q61 599 56 599L37 600Q30 600 26 604T22 615V671Q22 685 34 689L52 696Q60 700
71 700ZM105 0T105 10Q105 15 107 18L481 690Q486 700 499 700H599Q605 700 608 698T612 691Q612 687 609 682L236 10Q231 0 218 0H118Q105 0 105 10ZM810 206T814 202T818 191V114Q818 107 814 103T803 99H787Q782 99 782 94V15Q782 8 778 4T767 0H679Q672 0 668
4T664 15V94Q664 99 659 99H478Q471 99 467 103T463 114V174Q463 184 467 193L560 409Q564 420 577 420H670Q678 420 681 415T682 403L601 212Q600 210 601 208T605 206H659Q664 206 664 211V260Q664 267 668 271T679 275H767Q774 275 778 271T782 260V211Q782
206 787 206H803Q810 206 814 202Z" />
<glyph unicode="&#xbd;" glyph-name="onehalf" horiz-adv-x="806" d="M60 700T71 700H164Q171 700 175 696T179 685V295Q179 288 175 284T164 280H76Q69 280 65 284T61 295V594Q61 599 56 599L37 600Q30 600 26 604T22 615V671Q22 685 34 689L52 696Q60 700 71
700ZM105 0T105 10Q105 15 107 18L481 690Q486 700 499 700H599Q605 700 608 698T612 691Q612 687 609 682L236 10Q231 0 218 0H118Q105 0 105 10ZM487 0T483 4T479 15V89Q479 100 488 107Q533 146 612 221Q666 272 666 294Q666 307 657 315T631 324Q615 324 605
315T594 292V287Q594 280 590 276T579 272H490Q483 272 479 276T475 287V311Q479 363 523 394T631 425Q678 425 713 408T766 361T785 296Q785 272 774 249T740 199Q718 175 643 107Q641 105 641 103T645 101H774Q781 101 785 97T789 86V15Q789 8 785 4T774 0H494Q487
0 483 4Z" />
<glyph unicode="&#xbe;" glyph-name="threequarters" horiz-adv-x="926" d="M316 458T316 423Q316 390 304 361Q287 322 250 299T163 275Q114 275 76 298T20 363Q10 385 9 410V412Q9 425 23 425H113Q126 425 128 411Q132 395 136 390Q145 376 163 376Q180 376
189 390Q198 405 198 426Q198 449 189 464Q180 479 162 479Q150 479 133 470Q128 466 123 466Q116 466 112 472L69 524Q65 530 65 533Q65 539 73 545L151 593Q154 595 154 597T149 599H36Q29 599 25 603T21 614V685Q21 692 25 696T36 700H295Q302 700 306 696T310
685V611Q310 598 301 592L240 550Q237 548 237 546T242 543Q284 529 305 483Q316 458 316 423ZM191 0T191 10Q191 15 193 18L567 690Q572 700 585 700H685Q691 700 694 698T698 691Q698 687 695 682L322 10Q317 0 304 0H204Q191 0 191 10ZM896 206T900 202T904
191V114Q904 107 900 103T889 99H873Q868 99 868 94V15Q868 8 864 4T853 0H765Q758 0 754 4T750 15V94Q750 99 745 99H564Q557 99 553 103T549 114V174Q549 184 553 193L646 409Q650 420 663 420H756Q764 420 767 415T768 403L687 212Q686 210 687 208T691 206H745Q750
206 750 211V260Q750 267 754 271T765 275H853Q860 275 864 271T868 260V211Q868 206 873 206H889Q896 206 900 202Z" />
<glyph unicode="&#xbf;" glyph-name="questiondown" horiz-adv-x="562" d="M346 505T372 479T399 411Q399 369 373 343T305 317Q264 317 238 343T211 411Q211 452 238 478T305 505Q346 505 372 479ZM384 264T388 260T392 249V236Q392 197 376 168T338 121T280
81Q244 59 228 43T211 6Q211 -15 229 -27T279 -39Q313 -39 333 -25T354 12V16Q354 30 369 30L527 23Q542 23 542 12Q542 -53 508 -103T414 -182T274 -210Q198 -210 141 -184T52 -112T21 -3Q21 41 37 72T76 123T135 166Q171 190 188 206T205 248V249Q205 256 209
260T220 264H377Q384 264 388 260Z" />
<glyph unicode="&#xc0;" glyph-name="Agrave" horiz-adv-x="714" d="M493 0T490 13L468 91Q466 95 463 95H251Q248 95 246 91L224 13Q221 0 207 0H36Q18 0 23 17L234 688Q238 700 251 700H463Q476 700 480 688L691 17Q692 15 692 11Q692 0 678 0H507Q493 0 490
13ZM289 239T294 239H419Q425 239 423 245L359 469Q358 472 356 472T353 469L290 245Q289 239 294 239ZM425 771T425 770Q425 759 412 759H300Q288 759 282 768L212 862Q209 867 209 871Q209 880 221 880H356Q368 880 374 869L423 777Q425 771 425 770Z" />
<glyph unicode="&#xc1;" glyph-name="Aacute" horiz-adv-x="714" d="M493 0T490 13L468 91Q466 95 463 95H251Q248 95 246 91L224 13Q221 0 207 0H36Q18 0 23 17L234 688Q238 700 251 700H463Q476 700 480 688L691 17Q692 15 692 11Q692 0 678 0H507Q493 0 490
13ZM289 239T294 239H419Q425 239 423 245L359 469Q358 472 356 472T353 469L290 245Q289 239 294 239ZM278 759T275 764T275 777L324 869Q329 880 342 880H477Q489 880 489 871Q489 867 486 862L416 768Q410 759 398 759H286Q278 759 275 764Z" />
<glyph unicode="&#xc2;" glyph-name="Acircumflex" horiz-adv-x="714" d="M493 0T490 13L468 91Q466 95 463 95H251Q248 95 246 91L224 13Q221 0 207 0H36Q18 0 23 17L234 688Q238 700 251 700H463Q476 700 480 688L691 17Q692 15 692 11Q692 0 678 0H507Q493
0 490 13ZM289 239T294 239H419Q425 239 423 245L359 469Q358 472 356 472T353 469L290 245Q289 239 294 239ZM177 751T177 760Q177 765 180 769L247 870Q253 880 265 880H443Q455 880 462 870L531 769Q534 765 534 760Q534 751 521 751H403Q390 751 385 761L359
807Q356 812 353 807L327 761Q322 751 309 751H190Q177 751 177 760Z" />
<glyph unicode="&#xc3;" glyph-name="Atilde" horiz-adv-x="714" d="M493 0T490 13L468 91Q466 95 463 95H251Q248 95 246 91L224 13Q221 0 207 0H36Q18 0 23 17L234 688Q238 700 251 700H463Q476 700 480 688L691 17Q692 15 692 11Q692 0 678 0H507Q493 0 490
13ZM289 239T294 239H419Q425 239 423 245L359 469Q358 472 356 472T353 469L290 245Q289 239 294 239ZM397 733T383 737T349 749Q330 757 320 760T298 763Q267 763 247 745Q240 740 236 740Q232 740 227 745L173 805Q167 811 167 817Q167 821 170 825Q187 855
217 874T287 894Q307 894 323 889T352 879T369 871Q388 863 398 860T419 856Q447 856 463 875Q470 882 475 882Q480 882 484 876L533 814Q540 806 537 798Q525 770 494 752T419 733Q397 733 383 737Z" />
<glyph unicode="&#xc4;" glyph-name="Adieresis" horiz-adv-x="714" d="M493 0T490 13L468 91Q466 95 463 95H251Q248 95 246 91L224 13Q221 0 207 0H36Q18 0 23 17L234 688Q238 700 251 700H463Q476 700 480 688L691 17Q692 15 692 11Q692 0 678 0H507Q493 0
490 13ZM289 239T294 239H419Q425 239 423 245L359 469Q358 472 356 472T353 469L290 245Q289 239 294 239ZM423 744T397 770T370 838Q370 880 396 906T464 932Q505 932 531 906T558 838Q558 798 531 771T464 744Q423 744 397 770ZM205 744T179 770T152 838Q152
880 178 906T246 932Q287 932 313 906T340 838Q340 798 313 771T246 744Q205 744 179 770Z" />
<glyph unicode="&#xc5;" glyph-name="Aring" horiz-adv-x="714" d="M493 0T490 13L468 91Q466 95 463 95H251Q248 95 246 91L224 13Q221 0 207 0H36Q18 0 23 17L234 688Q238 700 251 700H463Q476 700 480 688L691 17Q692 15 692 11Q692 0 678 0H507Q493 0 490
13ZM289 239T294 239H419Q425 239 423 245L359 469Q358 472 356 472T353 469L290 245Q289 239 294 239ZM297 732T259 770T220 867Q220 924 258 962T355 1001Q413 1001 451 963T490 867Q490 809 452 771T355 732Q297 732 259 770ZM371 827T383 839T395 867Q395 884
384 896T355 908Q338 908 327 896T315 867Q315 851 326 839T355 827Q371 827 383 839Z" />
<glyph unicode="&#xc6;" glyph-name="AE" horiz-adv-x="986" d="M962 547T958 543T947 539H645Q640 539 640 534V440Q640 435 645 435H833Q840 435 844 431T848 420V290Q848 283 844 279T833 275H645Q640 275 640 270V166Q640 161 645 161H947Q954 161 958 157T962
146V15Q962 8 958 4T947 0H467Q460 0 456 4T452 15V90Q452 95 447 95H274Q270 95 268 91L230 11Q225 0 213 0H38Q25 0 25 10L27 18L357 689Q363 700 374 700H947Q954 700 958 696T962 685V554Q962 547 958 543ZM339 243T340 241T344 239H447Q452 239 452 244V469Q452
473 450 473T446 470L340 245Q339 243 340 241Z" />
<glyph unicode="&#xc7;" glyph-name="Ccedilla" horiz-adv-x="609" d="M582 458T567 456L409 446H406Q394 446 394 457Q394 498 370 522T306 547Q266 547 242 523T218 457V242Q218 202 242 178T306 153Q346 153 370 177T394 242Q394 248 398 251T409 253L567 245Q582
244 582 235Q582 139 523 75T362 -4Q356 -6 360 -10Q398 -51 398 -93Q398 -101 394 -119Q384 -155 357 -170T293 -186Q252 -186 220 -172Q209 -167 211 -153L219 -89Q221 -78 229 -78L237 -80Q242 -82 251 -82Q263 -82 270 -77T277 -60Q277 -37 229 -1Q227 1 226
1T223 2Q134 24 82 89T30 250V452Q30 528 64 586T161 676T306 708Q388 708 450 678T547 594T582 467V462Q582 458 567 456Z" />
<glyph unicode="&#xc8;" glyph-name="Egrave" horiz-adv-x="570" d="M546 547T542 543T531 539H232Q227 539 227 534V440Q227 435 232 435H417Q424 435 428 431T432 420V290Q432 283 428 279T417 275H232Q227 275 227 270V166Q227 161 232 161H531Q538 161 542
157T546 146V15Q546 8 542 4T531 0H54Q47 0 43 4T39 15V685Q39 692 43 696T54 700H531Q538 700 542 696T546 685V554Q546 547 542 543ZM361 771T361 770Q361 759 348 759H236Q224 759 218 768L148 862Q145 867 145 871Q145 880 157 880H292Q304 880 310 869L359
777Q361 771 361 770Z" />
<glyph unicode="&#xc9;" glyph-name="Eacute" horiz-adv-x="570" d="M546 547T542 543T531 539H232Q227 539 227 534V440Q227 435 232 435H417Q424 435 428 431T432 420V290Q432 283 428 279T417 275H232Q227 275 227 270V166Q227 161 232 161H531Q538 161 542
157T546 146V15Q546 8 542 4T531 0H54Q47 0 43 4T39 15V685Q39 692 43 696T54 700H531Q538 700 542 696T546 685V554Q546 547 542 543ZM214 759T211 764T211 777L260 869Q265 880 278 880H413Q425 880 425 871Q425 867 422 862L352 768Q346 759 334 759H222Q214
759 211 764Z" />
<glyph unicode="&#xca;" glyph-name="Ecircumflex" horiz-adv-x="570" d="M546 547T542 543T531 539H232Q227 539 227 534V440Q227 435 232 435H417Q424 435 428 431T432 420V290Q432 283 428 279T417 275H232Q227 275 227 270V166Q227 161 232 161H531Q538 161
542 157T546 146V15Q546 8 542 4T531 0H54Q47 0 43 4T39 15V685Q39 692 43 696T54 700H531Q538 700 542 696T546 685V554Q546 547 542 543ZM113 751T113 760Q113 765 116 769L183 870Q189 880 201 880H379Q391 880 398 870L467 769Q470 765 470 760Q470 751 457
751H339Q326 751 321 761L295 807Q292 812 289 807L263 761Q258 751 245 751H126Q113 751 113 760Z" />
<glyph unicode="&#xcb;" glyph-name="Edieresis" horiz-adv-x="570" d="M546 547T542 543T531 539H232Q227 539 227 534V440Q227 435 232 435H417Q424 435 428 431T432 420V290Q432 283 428 279T417 275H232Q227 275 227 270V166Q227 161 232 161H531Q538 161
542 157T546 146V15Q546 8 542 4T531 0H54Q47 0 43 4T39 15V685Q39 692 43 696T54 700H531Q538 700 542 696T546 685V554Q546 547 542 543ZM359 744T333 770T306 838Q306 880 332 906T400 932Q441 932 467 906T494 838Q494 798 467 771T400 744Q359 744 333 770ZM141
744T115 770T88 838Q88 880 114 906T182 932Q223 932 249 906T276 838Q276 798 249 771T182 744Q141 744 115 770Z" />
<glyph unicode="&#xcc;" glyph-name="Igrave" horiz-adv-x="266" d="M47 0T43 4T39 15V685Q39 692 43 696T54 700H212Q219 700 223 696T227 685V15Q227 8 223 4T212 0H54Q47 0 43 4ZM203 771T203 770Q203 759 190 759H78Q66 759 60 768L-10 862Q-13 867 -13 871Q-13
880 -1 880H134Q146 880 152 869L201 777Q203 771 203 770Z" />
<glyph unicode="&#xcd;" glyph-name="Iacute" horiz-adv-x="266" d="M47 0T43 4T39 15V685Q39 692 43 696T54 700H212Q219 700 223 696T227 685V15Q227 8 223 4T212 0H54Q47 0 43 4ZM56 759T53 764T53 777L102 869Q107 880 120 880H255Q267 880 267 871Q267 867
264 862L194 768Q188 759 176 759H64Q56 759 53 764Z" />
<glyph unicode="&#xce;" glyph-name="Icircumflex" horiz-adv-x="266" d="M47 0T43 4T39 15V685Q39 692 43 696T54 700H212Q219 700 223 696T227 685V15Q227 8 223 4T212 0H54Q47 0 43 4ZM-45 751T-45 760Q-45 765 -42 769L25 870Q31 880 43 880H221Q233 880 240
870L309 769Q312 765 312 760Q312 751 299 751H181Q168 751 163 761L137 807Q134 812 131 807L105 761Q100 751 87 751H-32Q-45 751 -45 760Z" />
<glyph unicode="&#xcf;" glyph-name="Idieresis" horiz-adv-x="266" d="M47 0T43 4T39 15V685Q39 692 43 696T54 700H212Q219 700 223 696T227 685V15Q227 8 223 4T212 0H54Q47 0 43 4ZM201 744T175 770T148 838Q148 880 174 906T242 932Q283 932 309 906T336
838Q336 798 309 771T242 744Q201 744 175 770ZM-17 744T-43 770T-70 838Q-70 880 -44 906T24 932Q65 932 91 906T118 838Q118 798 91 771T24 744Q-17 744 -43 770Z" />
<glyph unicode="&#xd0;" glyph-name="Eth" horiz-adv-x="660" d="M434 700T496 672T593 593T627 475V225Q627 158 593 107T497 28T353 0H96Q89 0 85 4T81 15V291Q81 296 76 296H54Q47 296 43 300T39 311V406Q39 413 43 417T54 421H76Q81 421 81 426V685Q81 692
85 696T96 700H353Q434 700 496 672ZM439 443Q439 486 417 512T359 539H274Q269 539 269 534V426Q269 421 274 421H326Q333 421 337 417T341 406V311Q341 304 337 300T326 296H274Q269 296 269 291V166Q269 161 274 161H360Q394 161 416 187T439 257V443Z" />
<glyph unicode="&#xd1;" glyph-name="Ntilde" horiz-adv-x="658" d="M431 692T435 696T446 700H604Q611 700 615 696T619 685V15Q619 8 615 4T604 0H453Q441 0 435 10L231 350Q229 353 227 353T225 348L227 15Q227 8 223 4T212 0H54Q47 0 43 4T39 15V685Q39 692
43 696T54 700H205Q217 700 223 690L426 350Q428 347 430 347T432 352L431 685Q431 692 435 696ZM360 733T346 737T312 749Q293 757 283 760T261 763Q230 763 210 745Q203 740 199 740Q195 740 190 745L136 805Q130 811 130 817Q130 821 133 825Q150 855 180 874T250
894Q270 894 286 889T315 879T332 871Q351 863 361 860T382 856Q410 856 426 875Q433 882 438 882Q443 882 447 876L496 814Q503 806 500 798Q488 770 457 752T382 733Q360 733 346 737Z" />
<glyph unicode="&#xd2;" glyph-name="Ograve" horiz-adv-x="621" d="M227 -12T164 21T65 115T30 256V444Q30 522 65 582T163 675T310 708Q394 708 457 675T556 582T591 444V256Q591 176 556 116T458 22T310 -12Q227 -12 164 21ZM352 149T377 176T403 250V446Q403
492 378 519T310 547Q269 547 244 520T218 446V250Q218 204 243 177T310 149Q352 149 377 176ZM380 771T380 770Q380 759 367 759H255Q243 759 237 768L167 862Q164 867 164 871Q164 880 176 880H311Q323 880 329 869L378 777Q380 771 380 770Z" />
<glyph unicode="&#xd3;" glyph-name="Oacute" horiz-adv-x="621" d="M227 -12T164 21T65 115T30 256V444Q30 522 65 582T163 675T310 708Q394 708 457 675T556 582T591 444V256Q591 176 556 116T458 22T310 -12Q227 -12 164 21ZM352 149T377 176T403 250V446Q403
492 378 519T310 547Q269 547 244 520T218 446V250Q218 204 243 177T310 149Q352 149 377 176ZM233 759T230 764T230 777L279 869Q284 880 297 880H432Q444 880 444 871Q444 867 441 862L371 768Q365 759 353 759H241Q233 759 230 764Z" />
<glyph unicode="&#xd4;" glyph-name="Ocircumflex" horiz-adv-x="621" d="M227 -12T164 21T65 115T30 256V444Q30 522 65 582T163 675T310 708Q394 708 457 675T556 582T591 444V256Q591 176 556 116T458 22T310 -12Q227 -12 164 21ZM352 149T377 176T403 250V446Q403
492 378 519T310 547Q269 547 244 520T218 446V250Q218 204 243 177T310 149Q352 149 377 176ZM132 751T132 760Q132 765 135 769L202 870Q208 880 220 880H398Q410 880 417 870L486 769Q489 765 489 760Q489 751 476 751H358Q345 751 340 761L314 807Q311 812
308 807L282 761Q277 751 264 751H145Q132 751 132 760Z" />
<glyph unicode="&#xd5;" glyph-name="Otilde" horiz-adv-x="621" d="M227 -12T164 21T65 115T30 256V444Q30 522 65 582T163 675T310 708Q394 708 457 675T556 582T591 444V256Q591 176 556 116T458 22T310 -12Q227 -12 164 21ZM352 149T377 176T403 250V446Q403
492 378 519T310 547Q269 547 244 520T218 446V250Q218 204 243 177T310 149Q352 149 377 176ZM352 733T338 737T304 749Q285 757 275 760T253 763Q222 763 202 745Q195 740 191 740Q187 740 182 745L128 805Q122 811 122 817Q122 821 125 825Q142 855 172 874T242
894Q262 894 278 889T307 879T324 871Q343 863 353 860T374 856Q402 856 418 875Q425 882 430 882Q435 882 439 876L488 814Q495 806 492 798Q480 770 449 752T374 733Q352 733 338 737Z" />
<glyph unicode="&#xd6;" glyph-name="Odieresis" horiz-adv-x="621" d="M227 -12T164 21T65 115T30 256V444Q30 522 65 582T163 675T310 708Q394 708 457 675T556 582T591 444V256Q591 176 556 116T458 22T310 -12Q227 -12 164 21ZM352 149T377 176T403 250V446Q403
492 378 519T310 547Q269 547 244 520T218 446V250Q218 204 243 177T310 149Q352 149 377 176ZM378 744T352 770T325 838Q325 880 351 906T419 932Q460 932 486 906T513 838Q513 798 486 771T419 744Q378 744 352 770ZM160 744T134 770T107 838Q107 880 133 906T201
932Q242 932 268 906T295 838Q295 798 268 771T201 744Q160 744 134 770Z" />
<glyph unicode="&#xd7;" glyph-name="multiply" horiz-adv-x="462" d="M434 414T434 407Q434 401 429 396L348 315Q346 313 346 311T348 307L429 226Q434 222 434 215Q434 209 429 204L338 112Q333 107 327 107Q323 107 316 112L235 193Q233 195 231 195T227 193L146
112Q141 107 135 107Q131 107 124 112L33 204Q28 211 28 215Q28 221 33 226L114 307Q116 309 116 311T114 315L33 396Q28 403 28 407Q28 413 33 418L124 509Q129 514 135 514Q142 514 146 509L227 428Q229 426 231 426T235 428L316 509Q321 514 327 514Q334 514
338 509L429 418Q434 414 434 407Z" />
<glyph unicode="&#xd8;" glyph-name="Oslash" horiz-adv-x="621" d="M620 660T620 654Q620 650 617 645L565 573Q564 570 565 566Q591 511 591 444V256Q591 176 556 116T458 22T310 -12Q240 -12 187 10Q182 12 180 8L140 -47Q136 -54 129 -54Q123 -54 119 -50L7
34Q0 41 0 46Q0 49 4 55L56 126Q57 129 56 133Q30 187 30 256V444Q30 522 65 582T163 675T310 708Q378 708 432 687Q437 685 439 689L481 747Q485 754 492 754Q498 754 502 750L614 666Q620 660 620 654ZM403 446Q403 492 378 519T310 547Q269 547 244 520T218
446V250Q218 204 243 177T310 149Q352 149 377 176T403 250V446Z" />
<glyph unicode="&#xd9;" glyph-name="Ugrave" horiz-adv-x="617" d="M228 -8T166 23T69 111T35 243V685Q35 692 39 696T50 700H208Q215 700 219 696T223 685V243Q223 202 246 178T309 153Q347 153 370 178T394 243V685Q394 692 398 696T409 700H567Q574 700 578
696T582 685V243Q582 168 548 111T452 23T309 -8Q228 -8 166 23ZM379 771T379 770Q379 759 366 759H254Q242 759 236 768L166 862Q163 867 163 871Q163 880 175 880H310Q322 880 328 869L377 777Q379 771 379 770Z" />
<glyph unicode="&#xda;" glyph-name="Uacute" horiz-adv-x="617" d="M228 -8T166 23T69 111T35 243V685Q35 692 39 696T50 700H208Q215 700 219 696T223 685V243Q223 202 246 178T309 153Q347 153 370 178T394 243V685Q394 692 398 696T409 700H567Q574 700 578
696T582 685V243Q582 168 548 111T452 23T309 -8Q228 -8 166 23ZM232 759T229 764T229 777L278 869Q283 880 296 880H431Q443 880 443 871Q443 867 440 862L370 768Q364 759 352 759H240Q232 759 229 764Z" />
<glyph unicode="&#xdb;" glyph-name="Ucircumflex" horiz-adv-x="617" d="M228 -8T166 23T69 111T35 243V685Q35 692 39 696T50 700H208Q215 700 219 696T223 685V243Q223 202 246 178T309 153Q347 153 370 178T394 243V685Q394 692 398 696T409 700H567Q574 700
578 696T582 685V243Q582 168 548 111T452 23T309 -8Q228 -8 166 23ZM131 751T131 760Q131 765 134 769L201 870Q207 880 219 880H397Q409 880 416 870L485 769Q488 765 488 760Q488 751 475 751H357Q344 751 339 761L313 807Q310 812 307 807L281 761Q276 751
263 751H144Q131 751 131 760Z" />
<glyph unicode="&#xdc;" glyph-name="Udieresis" horiz-adv-x="617" d="M228 -8T166 23T69 111T35 243V685Q35 692 39 696T50 700H208Q215 700 219 696T223 685V243Q223 202 246 178T309 153Q347 153 370 178T394 243V685Q394 692 398 696T409 700H567Q574 700
578 696T582 685V243Q582 168 548 111T452 23T309 -8Q228 -8 166 23ZM377 744T351 770T324 838Q324 880 350 906T418 932Q459 932 485 906T512 838Q512 798 485 771T418 744Q377 744 351 770ZM159 744T133 770T106 838Q106 880 132 906T200 932Q241 932 267 906T294
838Q294 798 267 771T200 744Q159 744 133 770Z" />
<glyph unicode="&#xdd;" glyph-name="Yacute" horiz-adv-x="651" d="M239 2T235 6T231 17V238L230 244L26 682L24 690Q24 700 37 700H209Q222 700 227 688L322 449Q325 442 328 449L423 688Q428 700 441 700H614Q627 700 627 690L625 682L419 244Q418 242 418
238V17Q418 10 414 6T403 2H246Q239 2 235 6ZM248 759T245 764T245 777L294 869Q299 880 312 880H447Q459 880 459 871Q459 867 456 862L386 768Q380 759 368 759H256Q248 759 245 764Z" />
<glyph unicode="&#xde;" glyph-name="Thorn" horiz-adv-x="590" d="M404 573T458 545T542 465T572 348Q572 283 539 233T450 155T325 127H229Q224 127 224 122V15Q224 8 220 4T209 0H51Q44 0 40 4T36 15V685Q36 692 40 696T51 700H209Q216 700 220 696T224 685V578Q224
573 229 573H334Q404 573 458 545ZM341 278T363 294T385 344Q385 377 363 394T303 412H229Q224 412 224 407V283Q224 278 229 278H303Q341 278 363 294Z" />
<glyph unicode="&#xdf;" glyph-name="germandbls" horiz-adv-x="586" d="M44 1T40 5T36 16V467Q36 582 101 645T289 708Q365 708 424 684T516 614T550 507Q550 429 488 387Q483 384 488 381Q522 358 543 313T564 213Q564 111 492 56T287 0H275Q268 0 264 4T260
15V145Q260 152 264 156T275 160H307Q334 160 355 180T376 233Q376 266 355 286T307 306H275Q268 306 264 310T260 321V437Q260 444 264 448T275 452H304Q326 452 344 467T362 502Q362 519 348 533T303 548Q271 548 248 532T224 485V15Q224 8 220 4T209 0L51 1Q44
1 40 5Z" />
<glyph unicode="&#xe0;" glyph-name="agrave" horiz-adv-x="540" d="M327 528T384 505T474 442T507 355V15Q507 8 503 4T492 0H334Q327 0 323 4T319 15V50Q319 54 318 54T314 52Q297 21 267 7T188 -8Q106 -8 59 29T12 139Q12 215 65 256T221 297H314Q319 297 319
302V320Q319 341 304 354T262 367Q244 367 230 361T210 345Q206 338 203 336T193 334L32 354Q18 356 18 366Q22 411 54 448T139 506T259 528Q327 528 384 505ZM278 122T298 139T319 185V198Q319 203 314 203H264Q201 203 201 162Q201 144 212 133T246 122Q278 122
298 139ZM340 591T340 590Q340 579 327 579H215Q203 579 197 588L127 682Q124 687 124 691Q124 700 136 700H271Q283 700 289 689L338 597Q340 591 340 590Z" />
<glyph unicode="&#xe1;" glyph-name="aacute" horiz-adv-x="540" d="M327 528T384 505T474 442T507 355V15Q507 8 503 4T492 0H334Q327 0 323 4T319 15V50Q319 54 318 54T314 52Q297 21 267 7T188 -8Q106 -8 59 29T12 139Q12 215 65 256T221 297H314Q319 297 319
302V320Q319 341 304 354T262 367Q244 367 230 361T210 345Q206 338 203 336T193 334L32 354Q18 356 18 366Q22 411 54 448T139 506T259 528Q327 528 384 505ZM278 122T298 139T319 185V198Q319 203 314 203H264Q201 203 201 162Q201 144 212 133T246 122Q278 122
298 139ZM193 579T190 584T190 597L239 689Q244 700 257 700H392Q404 700 404 691Q404 687 401 682L331 588Q325 579 313 579H201Q193 579 190 584Z" />
<glyph unicode="&#xe2;" glyph-name="acircumflex" horiz-adv-x="540" d="M327 528T384 505T474 442T507 355V15Q507 8 503 4T492 0H334Q327 0 323 4T319 15V50Q319 54 318 54T314 52Q297 21 267 7T188 -8Q106 -8 59 29T12 139Q12 215 65 256T221 297H314Q319
297 319 302V320Q319 341 304 354T262 367Q244 367 230 361T210 345Q206 338 203 336T193 334L32 354Q18 356 18 366Q22 411 54 448T139 506T259 528Q327 528 384 505ZM278 122T298 139T319 185V198Q319 203 314 203H264Q201 203 201 162Q201 144 212 133T246 122Q278
122 298 139ZM92 571T92 580Q92 585 95 589L162 690Q168 700 180 700H358Q370 700 377 690L446 589Q449 585 449 580Q449 571 436 571H318Q305 571 300 581L274 627Q271 632 268 627L242 581Q237 571 224 571H105Q92 571 92 580Z" />
<glyph unicode="&#xe3;" glyph-name="atilde" horiz-adv-x="540" d="M327 528T384 505T474 442T507 355V15Q507 8 503 4T492 0H334Q327 0 323 4T319 15V50Q319 54 318 54T314 52Q297 21 267 7T188 -8Q106 -8 59 29T12 139Q12 215 65 256T221 297H314Q319 297 319
302V320Q319 341 304 354T262 367Q244 367 230 361T210 345Q206 338 203 336T193 334L32 354Q18 356 18 366Q22 411 54 448T139 506T259 528Q327 528 384 505ZM278 122T298 139T319 185V198Q319 203 314 203H264Q201 203 201 162Q201 144 212 133T246 122Q278 122
298 139ZM312 553T298 557T264 569Q245 577 235 580T213 583Q182 583 162 565Q155 560 151 560Q147 560 142 565L88 625Q82 631 82 637Q82 641 85 645Q102 675 132 694T202 714Q222 714 238 709T267 699T284 691Q303 683 313 680T334 676Q362 676 378 695Q385 702
390 702Q395 702 399 696L448 634Q455 626 452 618Q440 590 409 572T334 553Q312 553 298 557Z" />
<glyph unicode="&#xe4;" glyph-name="adieresis" horiz-adv-x="540" d="M327 528T384 505T474 442T507 355V15Q507 8 503 4T492 0H334Q327 0 323 4T319 15V50Q319 54 318 54T314 52Q297 21 267 7T188 -8Q106 -8 59 29T12 139Q12 215 65 256T221 297H314Q319 297
319 302V320Q319 341 304 354T262 367Q244 367 230 361T210 345Q206 338 203 336T193 334L32 354Q18 356 18 366Q22 411 54 448T139 506T259 528Q327 528 384 505ZM278 122T298 139T319 185V198Q319 203 314 203H264Q201 203 201 162Q201 144 212 133T246 122Q278
122 298 139ZM338 564T312 590T285 658Q285 700 311 726T379 752Q420 752 446 726T473 658Q473 618 446 591T379 564Q338 564 312 590ZM120 564T94 590T67 658Q67 700 93 726T161 752Q202 752 228 726T255 658Q255 618 228 591T161 564Q120 564 94 590Z" />
<glyph unicode="&#xe5;" glyph-name="aring" horiz-adv-x="540" d="M327 528T384 505T474 442T507 355V15Q507 8 503 4T492 0H334Q327 0 323 4T319 15V50Q319 54 318 54T314 52Q297 21 267 7T188 -8Q106 -8 59 29T12 139Q12 215 65 256T221 297H314Q319 297 319
302V320Q319 341 304 354T262 367Q244 367 230 361T210 345Q206 338 203 336T193 334L32 354Q18 356 18 366Q22 411 54 448T139 506T259 528Q327 528 384 505ZM278 122T298 139T319 185V198Q319 203 314 203H264Q201 203 201 162Q201 144 212 133T246 122Q278 122
298 139ZM212 552T174 590T135 687Q135 744 173 782T270 821Q328 821 366 783T405 687Q405 629 367 591T270 552Q212 552 174 590ZM286 647T298 659T310 687Q310 704 299 716T270 728Q253 728 242 716T230 687Q230 671 241 659T270 647Q286 647 298 659Z" />
<glyph unicode="&#xe6;" glyph-name="ae" horiz-adv-x="844" d="M123 -8T68 34T12 150Q12 221 65 263T220 305H313Q318 305 318 310V320Q318 341 303 354T261 367Q243 367 229 361T209 345Q205 338 202 336T192 334L31 354Q16 356 18 370Q23 413 55 449T138 507T244
528Q300 528 347 507T419 455Q423 451 426 455Q446 484 487 506T580 528Q626 528 672 509T754 455T808 372Q826 320 827 224Q827 217 823 213T812 208H517Q513 208 513 204Q513 201 514 199T516 193Q533 149 609 149Q672 149 705 176Q712 181 716 181Q722 181 726
175L794 92Q798 87 798 82Q798 76 793 71Q711 -8 598 -8Q535 -8 486 16T418 77Q414 83 413 80Q392 42 339 17T214 -8Q123 -8 68 34ZM509 305T515 305H629Q633 305 633 309Q633 315 628 327Q611 367 572 367Q552 367 538 356T516 327Q512 318 511 310Q509 305 515
305ZM276 120T297 138T318 184V203Q318 208 313 208H263Q233 208 217 196T200 164Q200 147 212 134T248 120Q276 120 297 138Z" />
<glyph unicode="&#xe7;" glyph-name="ccedilla" horiz-adv-x="549" d="M241 367T224 331Q212 306 212 262Q212 221 223 193Q240 153 281 153Q325 153 341 199L342 203Q345 220 359 217L515 191Q528 188 528 177Q528 165 521 144Q501 87 457 50T350 -1Q347 -1 347
-3T348 -7Q390 -49 390 -93Q390 -107 386 -119Q376 -155 349 -170T285 -186Q244 -186 212 -172Q201 -167 203 -153L211 -89Q213 -78 221 -78L229 -80Q234 -82 243 -82Q255 -82 262 -77T269 -59Q269 -36 225 -4Q223 -2 222 -2T219 -1Q157 12 111 51T42 149Q22 200
22 263Q22 325 42 376Q70 447 134 487T282 528Q367 528 432 486T521 379Q528 361 530 341V338Q530 328 517 325L362 300H359Q346 300 345 313L341 327Q336 344 320 355T281 367Q241 367 224 331Z" />
<glyph unicode="&#xe8;" glyph-name="egrave" horiz-adv-x="552" d="M535 275T535 252Q535 236 534 227Q534 213 519 213H219Q215 213 215 209Q215 200 223 188Q233 171 258 160T316 148Q343 148 366 156T405 179Q410 183 415 183Q422 183 426 177L502 80Q506
75 506 69Q506 63 501 59Q466 25 414 9T302 -8Q209 -8 143 31T47 142Q25 194 25 254Q25 317 43 366Q70 442 132 485T278 528Q342 528 396 498T486 416T532 297Q535 275 535 252ZM236 367T220 327L216 316Q215 313 217 312T221 310H335Q339 310 339 314Q339 318
336 327Q331 346 316 356T277 367Q236 367 220 327ZM345 591T345 590Q345 579 332 579H220Q208 579 202 588L132 682Q129 687 129 691Q129 700 141 700H276Q288 700 294 689L343 597Q345 591 345 590Z" />
<glyph unicode="&#xe9;" glyph-name="eacute" horiz-adv-x="552" d="M535 275T535 252Q535 236 534 227Q534 213 519 213H219Q215 213 215 209Q215 200 223 188Q233 171 258 160T316 148Q343 148 366 156T405 179Q410 183 415 183Q422 183 426 177L502 80Q506
75 506 69Q506 63 501 59Q466 25 414 9T302 -8Q209 -8 143 31T47 142Q25 194 25 254Q25 317 43 366Q70 442 132 485T278 528Q342 528 396 498T486 416T532 297Q535 275 535 252ZM236 367T220 327L216 316Q215 313 217 312T221 310H335Q339 310 339 314Q339 318
336 327Q331 346 316 356T277 367Q236 367 220 327ZM198 579T195 584T195 597L244 689Q249 700 262 700H397Q409 700 409 691Q409 687 406 682L336 588Q330 579 318 579H206Q198 579 195 584Z" />
<glyph unicode="&#xea;" glyph-name="ecircumflex" horiz-adv-x="552" d="M535 275T535 252Q535 236 534 227Q534 213 519 213H219Q215 213 215 209Q215 200 223 188Q233 171 258 160T316 148Q343 148 366 156T405 179Q410 183 415 183Q422 183 426 177L502 80Q506
75 506 69Q506 63 501 59Q466 25 414 9T302 -8Q209 -8 143 31T47 142Q25 194 25 254Q25 317 43 366Q70 442 132 485T278 528Q342 528 396 498T486 416T532 297Q535 275 535 252ZM236 367T220 327L216 316Q215 313 217 312T221 310H335Q339 310 339 314Q339 318
336 327Q331 346 316 356T277 367Q236 367 220 327ZM97 571T97 580Q97 585 100 589L167 690Q173 700 185 700H363Q375 700 382 690L451 589Q454 585 454 580Q454 571 441 571H323Q310 571 305 581L279 627Q276 632 273 627L247 581Q242 571 229 571H110Q97 571
97 580Z" />
<glyph unicode="&#xeb;" glyph-name="edieresis" horiz-adv-x="552" d="M535 275T535 252Q535 236 534 227Q534 213 519 213H219Q215 213 215 209Q215 200 223 188Q233 171 258 160T316 148Q343 148 366 156T405 179Q410 183 415 183Q422 183 426 177L502 80Q506
75 506 69Q506 63 501 59Q466 25 414 9T302 -8Q209 -8 143 31T47 142Q25 194 25 254Q25 317 43 366Q70 442 132 485T278 528Q342 528 396 498T486 416T532 297Q535 275 535 252ZM236 367T220 327L216 316Q215 313 217 312T221 310H335Q339 310 339 314Q339 318
336 327Q331 346 316 356T277 367Q236 367 220 327ZM343 564T317 590T290 658Q290 700 316 726T384 752Q425 752 451 726T478 658Q478 618 451 591T384 564Q343 564 317 590ZM125 564T99 590T72 658Q72 700 98 726T166 752Q207 752 233 726T260 658Q260 618 233
591T166 564Q125 564 99 590Z" />
<glyph unicode="&#xec;" glyph-name="igrave" horiz-adv-x="254" d="M41 0T37 4T33 15V505Q33 512 37 516T48 520H206Q213 520 217 516T221 505V15Q221 8 217 4T206 0H48Q41 0 37 4ZM197 591T197 590Q197 579 184 579H72Q60 579 54 588L-16 682Q-19 687 -19 691Q-19
700 -7 700H128Q140 700 146 689L195 597Q197 591 197 590Z" />
<glyph unicode="&#xed;" glyph-name="iacute" horiz-adv-x="254" d="M41 0T37 4T33 15V505Q33 512 37 516T48 520H206Q213 520 217 516T221 505V15Q221 8 217 4T206 0H48Q41 0 37 4ZM50 579T47 584T47 597L96 689Q101 700 114 700H249Q261 700 261 691Q261 687
258 682L188 588Q182 579 170 579H58Q50 579 47 584Z" />
<glyph unicode="&#xee;" glyph-name="icircumflex" horiz-adv-x="254" d="M41 0T37 4T33 15V505Q33 512 37 516T48 520H206Q213 520 217 516T221 505V15Q221 8 217 4T206 0H48Q41 0 37 4ZM-51 571T-51 580Q-51 585 -48 589L19 690Q25 700 37 700H215Q227 700 234
690L303 589Q306 585 306 580Q306 571 293 571H175Q162 571 157 581L131 627Q128 632 125 627L99 581Q94 571 81 571H-38Q-51 571 -51 580Z" />
<glyph unicode="&#xef;" glyph-name="idieresis" horiz-adv-x="254" d="M41 0T37 4T33 15V505Q33 512 37 516T48 520H206Q213 520 217 516T221 505V15Q221 8 217 4T206 0H48Q41 0 37 4ZM195 564T169 590T142 658Q142 700 168 726T236 752Q277 752 303 726T330
658Q330 618 303 591T236 564Q195 564 169 590ZM-23 564T-49 590T-76 658Q-76 700 -50 726T18 752Q59 752 85 726T112 658Q112 618 85 591T18 564Q-23 564 -49 590Z" />
<glyph unicode="&#xf0;" glyph-name="eth" horiz-adv-x="563" d="M530 306T530 228Q530 172 510 129Q482 67 420 30T276 -8Q195 -8 133 29T42 129Q22 173 22 227Q22 280 42 325Q68 382 121 415Q142 428 182 437T258 446Q281 446 301 441Q304 440 305 441T305 446Q294
470 276 501Q275 503 274 504T270 504L167 479L162 478Q151 478 148 490L132 557L131 562Q131 573 143 576L208 591Q213 593 210 598Q174 643 138 681Q133 688 133 691Q133 695 136 697T146 700H311Q322 700 329 691L370 635Q371 633 372 633T376 633L461 654L466
655Q477 655 480 643L496 576L497 571Q497 560 485 557L438 545Q432 543 437 537Q493 448 512 373Q530 306 530 228ZM340 191T340 222Q340 250 327 274Q309 307 276 307Q241 307 224 274Q212 250 212 222Q212 193 225 167Q243 132 276 132Q308 132 327 167Q340
191 340 222Z" />
<glyph unicode="&#xf1;" glyph-name="ntilde" horiz-adv-x="552" d="M395 528T435 506T498 442T522 341V15Q522 8 518 4T507 0H349Q342 0 338 4T334 15V300Q334 330 319 348T278 367Q252 367 237 349T221 300V15Q221 8 217 4T206 0H48Q41 0 37 4T33 15V505Q33
512 37 516T48 520H206Q213 520 217 516T221 505V469Q221 465 223 464T226 466Q264 528 345 528Q395 528 435 506ZM326 553T312 557T278 569Q259 577 249 580T227 583Q196 583 176 565Q169 560 165 560Q161 560 156 565L102 625Q96 631 96 637Q96 641 99 645Q116
675 146 694T216 714Q236 714 252 709T281 699T298 691Q317 683 327 680T348 676Q376 676 392 695Q399 702 404 702Q409 702 413 696L462 634Q469 626 466 618Q454 590 423 572T348 553Q326 553 312 557Z" />
<glyph unicode="&#xf2;" glyph-name="ograve" horiz-adv-x="558" d="M184 -8T119 43T32 181Q22 217 22 261Q22 310 34 350Q58 433 122 480T280 528Q373 528 436 481T524 352Q536 310 536 263Q536 225 528 187Q507 97 442 45T279 -8Q184 -8 119 43ZM305 153T321
170T343 217Q347 236 347 262Q347 285 342 308Q327 367 279 367Q229 367 216 308Q211 291 211 262Q211 236 215 217Q230 153 279 153Q305 153 321 170ZM349 591T349 590Q349 579 336 579H224Q212 579 206 588L136 682Q133 687 133 691Q133 700 145 700H280Q292
700 298 689L347 597Q349 591 349 590Z" />
<glyph unicode="&#xf3;" glyph-name="oacute" horiz-adv-x="558" d="M184 -8T119 43T32 181Q22 217 22 261Q22 310 34 350Q58 433 122 480T280 528Q373 528 436 481T524 352Q536 310 536 263Q536 225 528 187Q507 97 442 45T279 -8Q184 -8 119 43ZM305 153T321
170T343 217Q347 236 347 262Q347 285 342 308Q327 367 279 367Q229 367 216 308Q211 291 211 262Q211 236 215 217Q230 153 279 153Q305 153 321 170ZM202 579T199 584T199 597L248 689Q253 700 266 700H401Q413 700 413 691Q413 687 410 682L340 588Q334 579
322 579H210Q202 579 199 584Z" />
<glyph unicode="&#xf4;" glyph-name="ocircumflex" horiz-adv-x="558" d="M184 -8T119 43T32 181Q22 217 22 261Q22 310 34 350Q58 433 122 480T280 528Q373 528 436 481T524 352Q536 310 536 263Q536 225 528 187Q507 97 442 45T279 -8Q184 -8 119 43ZM305 153T321
170T343 217Q347 236 347 262Q347 285 342 308Q327 367 279 367Q229 367 216 308Q211 291 211 262Q211 236 215 217Q230 153 279 153Q305 153 321 170ZM101 571T101 580Q101 585 104 589L171 690Q177 700 189 700H367Q379 700 386 690L455 589Q458 585 458 580Q458
571 445 571H327Q314 571 309 581L283 627Q280 632 277 627L251 581Q246 571 233 571H114Q101 571 101 580Z" />
<glyph unicode="&#xf5;" glyph-name="otilde" horiz-adv-x="558" d="M184 -8T119 43T32 181Q22 217 22 261Q22 310 34 350Q58 433 122 480T280 528Q373 528 436 481T524 352Q536 310 536 263Q536 225 528 187Q507 97 442 45T279 -8Q184 -8 119 43ZM305 153T321
170T343 217Q347 236 347 262Q347 285 342 308Q327 367 279 367Q229 367 216 308Q211 291 211 262Q211 236 215 217Q230 153 279 153Q305 153 321 170ZM321 553T307 557T273 569Q254 577 244 580T222 583Q191 583 171 565Q164 560 160 560Q156 560 151 565L97 625Q91
631 91 637Q91 641 94 645Q111 675 141 694T211 714Q231 714 247 709T276 699T293 691Q312 683 322 680T343 676Q371 676 387 695Q394 702 399 702Q404 702 408 696L457 634Q464 626 461 618Q449 590 418 572T343 553Q321 553 307 557Z" />
<glyph unicode="&#xf6;" glyph-name="odieresis" horiz-adv-x="558" d="M184 -8T119 43T32 181Q22 217 22 261Q22 310 34 350Q58 433 122 480T280 528Q373 528 436 481T524 352Q536 310 536 263Q536 225 528 187Q507 97 442 45T279 -8Q184 -8 119 43ZM305 153T321
170T343 217Q347 236 347 262Q347 285 342 308Q327 367 279 367Q229 367 216 308Q211 291 211 262Q211 236 215 217Q230 153 279 153Q305 153 321 170ZM347 564T321 590T294 658Q294 700 320 726T388 752Q429 752 455 726T482 658Q482 618 455 591T388 564Q347
564 321 590ZM129 564T103 590T76 658Q76 700 102 726T170 752Q211 752 237 726T264 658Q264 618 237 591T170 564Q129 564 103 590Z" />
<glyph unicode="&#xf7;" glyph-name="divide" horiz-adv-x="476" d="M205 402T182 425T158 482Q158 514 181 537T238 561Q270 561 293 538T317 482Q317 449 294 426T238 402Q205 402 182 425ZM30 222T26 226T22 237V367Q22 374 26 378T37 382H439Q446 382 450
378T454 367V237Q454 230 450 226T439 222H37Q30 222 26 226ZM205 48T182 71T158 128Q158 160 181 183T238 207Q270 207 293 184T317 128Q317 95 294 72T238 48Q205 48 182 71Z" />
<glyph unicode="&#xf8;" glyph-name="oslash" horiz-adv-x="538" d="M485 419T486 415Q503 388 514 352Q526 310 526 263Q526 225 518 187Q497 97 432 45T269 -8Q232 -8 194 2Q190 3 188 0L140 -66Q136 -73 129 -73Q123 -73 119 -69L7 15Q0 22 0 27Q0 30 4 36L52
101Q53 104 52 108Q32 141 22 181Q12 217 12 261Q12 310 24 350Q48 433 112 480T270 528Q309 528 343 519Q347 518 349 521L398 590Q402 597 409 597Q415 597 419 593L531 509Q537 503 537 497Q537 493 534 488L486 422Q485 419 486 415ZM337 236T337 262Q337 285
332 308Q317 367 269 367Q219 367 206 308Q201 291 201 262Q201 236 205 217Q220 153 269 153Q295 153 311 170T333 217Q337 236 337 262Z" />
<glyph unicode="&#xf9;" glyph-name="ugrave" horiz-adv-x="552" d="M331 512T335 516T346 520H504Q511 520 515 516T519 505V15Q519 8 515 4T504 0H346Q339 0 335 4T331 15V48Q331 51 329 52T325 50Q284 -8 197 -8Q121 -8 76 41T31 179V505Q31 512 35 516T46
520H204Q211 520 215 516T219 505V220Q219 190 234 172T275 153Q297 153 311 166T330 203Q331 205 331 209V505Q331 512 335 516ZM344 591T344 590Q344 579 331 579H219Q207 579 201 588L131 682Q128 687 128 691Q128 700 140 700H275Q287 700 293 689L342 597Q344
591 344 590Z" />
<glyph unicode="&#xfa;" glyph-name="uacute" horiz-adv-x="552" d="M331 512T335 516T346 520H504Q511 520 515 516T519 505V15Q519 8 515 4T504 0H346Q339 0 335 4T331 15V48Q331 51 329 52T325 50Q284 -8 197 -8Q121 -8 76 41T31 179V505Q31 512 35 516T46
520H204Q211 520 215 516T219 505V220Q219 190 234 172T275 153Q297 153 311 166T330 203Q331 205 331 209V505Q331 512 335 516ZM197 579T194 584T194 597L243 689Q248 700 261 700H396Q408 700 408 691Q408 687 405 682L335 588Q329 579 317 579H205Q197 579
194 584Z" />
<glyph unicode="&#xfb;" glyph-name="ucircumflex" horiz-adv-x="552" d="M331 512T335 516T346 520H504Q511 520 515 516T519 505V15Q519 8 515 4T504 0H346Q339 0 335 4T331 15V48Q331 51 329 52T325 50Q284 -8 197 -8Q121 -8 76 41T31 179V505Q31 512 35 516T46
520H204Q211 520 215 516T219 505V220Q219 190 234 172T275 153Q297 153 311 166T330 203Q331 205 331 209V505Q331 512 335 516ZM96 571T96 580Q96 585 99 589L166 690Q172 700 184 700H362Q374 700 381 690L450 589Q453 585 453 580Q453 571 440 571H322Q309
571 304 581L278 627Q275 632 272 627L246 581Q241 571 228 571H109Q96 571 96 580Z" />
<glyph unicode="&#xfc;" glyph-name="udieresis" horiz-adv-x="552" d="M331 512T335 516T346 520H504Q511 520 515 516T519 505V15Q519 8 515 4T504 0H346Q339 0 335 4T331 15V48Q331 51 329 52T325 50Q284 -8 197 -8Q121 -8 76 41T31 179V505Q31 512 35 516T46
520H204Q211 520 215 516T219 505V220Q219 190 234 172T275 153Q297 153 311 166T330 203Q331 205 331 209V505Q331 512 335 516ZM342 564T316 590T289 658Q289 700 315 726T383 752Q424 752 450 726T477 658Q477 618 450 591T383 564Q342 564 316 590ZM124 564T98
590T71 658Q71 700 97 726T165 752Q206 752 232 726T259 658Q259 618 232 591T165 564Q124 564 98 590Z" />
<glyph unicode="&#xfd;" glyph-name="yacute" horiz-adv-x="534" d="M41 -199T39 -195T37 -184V-60Q37 -45 48 -45Q114 -45 141 -37T173 -3L172 3L14 503Q13 505 13 509Q13 520 27 520H195Q209 520 212 507L266 240Q267 236 269 236T272 240L326 507Q329 520 343
520H507Q524 520 519 503L356 -2Q330 -79 301 -119T215 -179T51 -199H44Q41 -199 39 -195ZM189 592T186 597T186 610L235 702Q240 713 253 713H388Q400 713 400 704Q400 700 397 695L327 601Q321 592 309 592H197Q189 592 186 597Z" />
<glyph unicode="&#xfe;" glyph-name="thorn" horiz-adv-x="558" d="M536 334T536 262Q536 200 521 150Q499 77 446 35T325 -8Q264 -8 227 26Q225 28 223 27T221 23V-185Q221 -192 217 -196T206 -200H48Q41 -200 37 -196T33 -185V685Q33 692 37 696T48 700H206Q213
700 217 696T221 685V504Q221 501 223 500T227 501Q262 528 317 528Q388 528 439 490T514 390Q536 334 536 262ZM339 215T339 259Q339 306 324 334Q307 367 271 367Q241 367 223 342Q221 340 221 336V185Q221 181 223 179Q241 153 271 153Q306 153 324 186Q339
215 339 259Z" />
<glyph unicode="&#xff;" glyph-name="ydieresis" horiz-adv-x="534" d="M41 -199T39 -195T37 -184V-60Q37 -45 48 -45Q114 -45 141 -37T173 -3L172 3L14 503Q13 505 13 509Q13 520 27 520H195Q209 520 212 507L266 240Q267 236 269 236T272 240L326 507Q329 520
343 520H507Q524 520 519 503L356 -2Q330 -79 301 -119T215 -179T51 -199H44Q41 -199 39 -195ZM334 577T308 603T281 671Q281 713 307 739T375 765Q416 765 442 739T469 671Q469 631 442 604T375 577Q334 577 308 603ZM116 577T90 603T63 671Q63 713 89 739T157
765Q198 765 224 739T251 671Q251 631 224 604T157 577Q116 577 90 603Z" />
<glyph unicode="&#x2013;" glyph-name="endash" horiz-adv-x="494" d="M30 204T26 208T22 219V350Q22 357 26 361T37 365H457Q464 365 468 361T472 350V219Q472 212 468 208T457 204H37Q30 204 26 208Z" />
<glyph unicode="&#x2014;" glyph-name="emdash" horiz-adv-x="641" d="M30 205T26 209T22 220V350Q22 357 26 361T37 365H604Q611 365 615 361T619 350V220Q619 213 615 209T604 205H37Q30 205 26 209Z" />
<glyph unicode="&#x2018;" glyph-name="quoteleft" horiz-adv-x="246" d="M11 460T8 464T7 477L93 688Q98 700 111 700H229Q236 700 240 696T242 683L192 473Q189 460 176 460H19Q11 460 8 464Z" />
<glyph unicode="&#x2019;" glyph-name="quoteright" horiz-adv-x="246" d="M235 700T238 696T239 683L153 472Q149 460 135 460H17Q10 460 6 464T4 477L54 687Q57 700 70 700H227Q235 700 238 696Z" />
<glyph unicode="&#x201a;" glyph-name="quotesinglbase" horiz-adv-x="600" d="M22 -111T24 -95L50 146Q51 160 65 160H202Q210 160 213 156T214 143L149 -98Q146 -111 133 -111H38Q22 -111 24 -95Z" />
<glyph unicode="&#x201c;" glyph-name="quotedblleft" horiz-adv-x="428" d="M10 460T7 464T6 477L78 688Q82 700 95 700H207Q224 700 221 684L183 474Q180 460 167 460H18Q10 460 7 464ZM216 460T213 464T212 477L282 688Q286 700 299 700H412Q428 700 425 684L389
474Q387 460 373 460H224Q216 460 213 464Z" />
<glyph unicode="&#x201d;" glyph-name="quotedblright" horiz-adv-x="428" d="M212 700T215 696T216 683L146 472Q142 460 129 460H16Q0 460 3 476L39 686Q41 700 55 700H204Q212 700 215 696ZM418 700T421 696T422 683L350 472Q346 460 333 460H221Q204 460 207
476L245 686Q248 700 261 700H410Q418 700 421 696Z" />
<glyph unicode="&#x201e;" glyph-name="quotedblbase" horiz-adv-x="455" d="M212 129T215 125T216 112L146 -99Q142 -111 129 -111H16Q0 -111 3 -95L39 115Q41 129 55 129H204Q212 129 215 125ZM418 129T421 125T422 112L350 -99Q346 -111 333 -111H221Q204 -111
207 -95L245 115Q248 129 261 129H410Q418 129 421 125Z" />
<glyph unicode="&#x2022;" glyph-name="bullet" horiz-adv-x="322" d="M124 143T92 162T41 213T22 283Q22 321 40 353T91 403T162 422Q199 422 231 404T281 353T300 283Q300 245 282 213T231 162T162 143Q124 143 92 162Z" />
<glyph unicode="&#x2039;" glyph-name="guilsinglleft" horiz-adv-x="316" d="M270 117Q270 107 257 107H135Q123 107 118 118L44 271Q42 279 42 281Q42 285 44 291L118 444Q123 455 135 455H257Q270 455 270 445L268 437L192 284Q191 281 192 278L268 125L270 117Z" />
<glyph unicode="&#x203a;" glyph-name="guilsinglright" horiz-adv-x="307" d="M46 107T46 117L48 125L124 278Q125 281 124 284L48 437L46 445Q46 455 59 455H181Q193 455 198 444L272 291Q274 288 274 281Q274 275 272 271L198 118Q193 107 181 107H59Q46 107 46 117Z" />
</font>
</defs>
</svg>
