<?xml version="1.0" standalone="no"?>
<!DOCTYPE svg PUBLIC "-//W3C//DTD SVG 1.1//EN" "http://www.w3.org/Graphics/SVG/1.1/DTD/svg11.dtd" >
<svg xmlns="http://www.w3.org/2000/svg" xmlns:xlink="http://www.w3.org/1999/xlink" version="1.1">
<metadata>
Created by FontForge 20200314 at Wed Jan 13 11:59:52 2021
 By Robert Madole
Copyright (c) Font Awesome
</metadata>
<!-- Font Awesome Pro 5.15.2 by @fontawesome - https://fontawesome.com License - https://fontawesome.com/license (Commercial License) --><defs>
<font id="FontAwesome5Pro-Light" horiz-adv-x="512" >
  <font-face 
    font-family="Font Awesome 5 Pro Light"
    font-weight="300"
    font-stretch="normal"
    units-per-em="512"
    panose-1="2 0 3 3 0 0 0 0 0 0"
    ascent="448"
    descent="-64"
    bbox="-1 -64.0996 640.024 449"
    underline-thickness="25"
    underline-position="-50"
    unicode-range="U+0020-F8FF"
  />
    <missing-glyph />
    <glyph glyph-name="heart" unicode="&#xf004;" 
d="M462.3 385.3c62.7998 -53.5996 66.1006 -149.8 9.7002 -207.8l-193.5 -199.8c-6.2002 -6.5 -14.4004 -9.7002 -22.5996 -9.7002c-8.2002 0 -16.4004 3.2998 -22.6006 9.7002l-193.5 199.8c-56.2002 58 -52.8994 154.2 9.90039 207.8
c63.5 54 145.8 28.6006 186.6 -13.5996l19.7002 -20.2998l19.7002 20.3994c50.5996 52.2002 132.1 59.9004 186.6 13.5zM449.2 199.7c38.3994 39.7002 46.2998 115.2 -7.7002 161.2c-54.5996 46.5 -119.6 12.5 -142.8 -11.5l-42.7002 -44.1006l-42.7002 44.1006
c-23.5996 24.3994 -88 58.2998 -142.8 11.5c-54.0996 -46.1006 -46.0996 -121.601 -7.7002 -161.2l193.601 -199.8z" />
    <glyph glyph-name="star" unicode="&#xf005;" horiz-adv-x="576" 
d="M528.1 276.5c26.2002 -3.7998 36.7002 -36.0996 17.7002 -54.5996l-105.7 -103l25 -145.5c4.5 -26.3008 -23.1992 -45.9004 -46.3994 -33.7002l-130.7 68.7002l-130.7 -68.7002c-23.2002 -12.2998 -50.8994 7.39941 -46.3994 33.7002l25 145.5l-105.7 103
c-19 18.5 -8.5 50.7998 17.7002 54.5996l146.1 21.2998l65.2998 132.4c11.7998 23.8994 45.7002 23.5996 57.4004 0l65.2998 -132.4zM405.8 130.1l117.7 114.801l-162.7 23.5996l-72.7998 147.5l-72.7998 -147.5l-162.7 -23.5996l117.8 -114.9l-27.7998 -162l145.5 76.5
l145.6 -76.4004z" />
    <glyph glyph-name="tags" unicode="&#xf02c;" horiz-adv-x="640" 
d="M625.941 154.177l-204.118 -204.118c-18.7461 -18.7451 -49.1387 -18.7441 -67.8818 0l-1.77539 1.77539l22.627 22.627l1.77539 -1.77539c6.25293 -6.25293 16.3838 -6.24219 22.627 0l204.118 204.118c6.2373 6.23926 6.2373 16.3896 0 22.627l-211.883 211.884
c-2.87891 2.89453 -6.86523 4.68848 -11.2676 4.68848c-0.0146484 0 -0.03125 -0.00292969 -0.0458984 -0.00292969h-19.5488l-32 32h51.5488c13.2461 0 25.252 -5.37012 33.9404 -14.0586l211.883 -211.883c18.7451 -18.7441 18.7451 -49.1367 0.000976562 -67.8818z
M252.118 416h-204.118c-8.82227 0 -16 -7.17773 -16 -16v-204.118c0 -4.27344 1.66406 -8.29199 4.68555 -11.3135l211.883 -211.883c6.25293 -6.25293 16.3838 -6.24219 22.627 0l204.118 204.118c6.2373 6.23926 6.2373 16.3896 0 22.627l-211.883 211.884
c-2.87891 2.89453 -6.86523 4.68848 -11.2676 4.68848c-0.0146484 0 -0.0302734 -0.00292969 -0.0449219 -0.00292969zM252.118 448c13.2461 0 25.252 -5.37012 33.9404 -14.0586l211.883 -211.883c18.7441 -18.7441 18.7441 -49.1367 0 -67.8818l-204.118 -204.118
c-18.7461 -18.7451 -49.1387 -18.7441 -67.8818 0l-211.883 211.883c-8.68848 8.68848 -14.0586 20.6943 -14.0586 33.9404v204.118c0 26.5098 21.4902 48 48 48h204.118zM144 324c-11.0283 0 -20 -8.97168 -20 -20s8.97168 -20 20 -20s20 8.97168 20 20s-8.97168 20 -20 20
zM144 352c26.5098 0 48 -21.4902 48 -48s-21.4902 -48 -48 -48s-48 21.4902 -48 48s21.4902 48 48 48z" />
    <glyph glyph-name="bookmark" unicode="&#xf02e;" horiz-adv-x="384" 
d="M336 448c26.5098 0 48 -21.4902 48 -48v-464l-192 112l-192 -112v464c0 26.5098 21.4902 48 48 48h288zM352 -8.28711v408.287c0 8.82227 -7.17773 16 -16 16h-288c-8.82227 0 -16 -7.17773 -16 -16v-408.287l160 93.333z" />
    <glyph glyph-name="font" unicode="&#xf031;" horiz-adv-x="448" 
d="M424 0c4.41504 0 8 -3.58496 8 -8v-16c0 -4.41504 -3.58496 -8 -8 -8h-112c-4.41504 0 -8 3.58496 -8 8v16c0 4.41504 3.58496 8 8 8h41.5303l-44.3105 128h-170.439l-44.2998 -128h41.5195c4.41504 0 8 -3.58496 8 -8v-16c0 -4.41504 -3.58496 -8 -8 -8h-112
c-4.41504 0 -8 3.58496 -8 8v16c0 4.41504 3.58496 8 8 8h36.5996l140.28 405.23c2.16797 6.2666 8.11914 10.7695 15.1201 10.7695h16c0.00292969 0 0.000976562 0.00390625 0.00390625 0.00390625c7.00098 0 12.958 -4.50586 15.126 -10.7734l140.271 -405.23h36.5996z
M149.86 160h148.279l-74.1396 214.2z" />
    <glyph glyph-name="bold" unicode="&#xf032;" horiz-adv-x="384" 
d="M306 213.88c45.9395 -19.4404 78.1191 -64.8926 78.1191 -117.88c0 -70.6455 -57.3545 -128 -128 -128h-0.119141h-216c-4.41504 0 -8 3.58496 -8 8v16c0 4.41504 3.58496 8 8 8h24v384h-24c-4.41504 0 -8 3.58496 -8 8v16c0 4.41504 3.58496 8 8 8h200
c61.8145 0 112 -50.1855 112 -112c0 -37.1104 -18.2598 -69.7402 -46 -90.1201zM96 384v-160h144c44.1533 0 80 35.8467 80 80s-35.8467 80 -80 80h-144zM256 0c52.9834 0 96 43.0166 96 96s-43.0166 96 -96 96h-160v-192h160z" />
    <glyph glyph-name="italic" unicode="&#xf033;" horiz-adv-x="320" 
d="M320 408v-16c0 -4.41504 -3.58496 -8 -8 -8h-87.5l-96 -384h87.5c4.41504 0 8 -3.58496 8 -8v-16c0 -4.41504 -3.58496 -8 -8 -8h-208c-4.41504 0 -8 3.58496 -8 8v16c0 4.41504 3.58496 8 8 8h87.5l96 384h-87.5c-4.41504 0 -8 3.58496 -8 8v16c0 4.41504 3.58496 8 8 8
h208c4.41504 0 8 -3.58496 8 -8z" />
    <glyph glyph-name="text-height" unicode="&#xf034;" horiz-adv-x="576" 
d="M560 80c15.6396 0 20.6396 -18 11.3203 -27.3203l-80 -80c-2.89648 -2.89648 -6.90137 -4.68945 -11.3174 -4.68945s-8.41699 1.79297 -11.3125 4.68945l-80 80c-10.0205 10 -3 27.3203 11.3096 27.3203h64v224h-64c-15.6396 0 -20.6396 18 -11.3203 27.3096l80 80
c2.89648 2.89746 6.90137 4.69043 11.3174 4.69043s8.41699 -1.79297 11.3125 -4.69043l80 -80c10.0205 -10 3 -27.3096 -11.3096 -27.3096h-64v-224h64zM438.63 336h82.7305l-41.3604 41.3799zM480 6.63965l41.3799 41.3604h-82.7402zM304 416
c8.83105 0 16 -7.16895 16 -16v-72c0 -4.41504 -3.58496 -8 -8 -8h-16c-4.41504 0 -8 3.58496 -8 8v56h-112v-384h72c4.41504 0 8 -3.58496 8 -8v-16c0 -4.41504 -3.58496 -8 -8 -8h-176c-4.41504 0 -8 3.58496 -8 8v16c0 4.41504 3.58496 8 8 8h72v384h-112v-56
c0 -4.41504 -3.58496 -8 -8 -8h-16c-4.41504 0 -8 3.58496 -8 8v72c0 8.83105 7.16895 16 16 16h288z" />
    <glyph glyph-name="text-width" unicode="&#xf035;" horiz-adv-x="448" 
d="M362.31 155.31l80 -79.9795c2.89746 -2.89648 4.69043 -6.90137 4.69043 -11.3174s-1.79297 -8.41602 -4.69043 -11.3125l-80 -80c-2.83984 -2.90137 -6.7998 -4.7002 -11.1768 -4.7002h-0.00292969h-0.129883c-8.83105 0 -16 7.16895 -16 16v64h-224v-64
c0 -10.3096 -7.83008 -16 -15.8301 -16c-0.0429688 0 -0.0859375 -0.00195312 -0.128906 -0.00195312c-4.42188 0 -8.43164 1.78027 -11.3506 4.66211l-80 80c-2.89746 2.89648 -4.69043 6.90137 -4.69043 11.3174s1.79297 8.41602 4.69043 11.3125l80 80
c2.83887 2.90723 6.80176 4.70996 11.1816 4.70996h0.0078125h0.120117c8.83105 0 16 -7.16895 16 -16v-64h224v64c0 10.3096 7.83008 16 15.8301 16c0.0380859 0 0.0771484 0.00195312 0.115234 0.00195312c4.43262 0 8.44922 -1.79199 11.3643 -4.69238zM79 80v25.3604
l-41.3701 -41.3604l41.3701 -41.3701v57.3701zM367 22.6396l41.3701 41.3604l-41.3701 41.3701v-82.7305zM431 416c8.83105 0 16 -7.16895 16 -16v-72c0 -4.41504 -3.58496 -8 -8 -8h-16c-4.41504 0 -8 3.58496 -8 8v56h-176v-192h40c4.41504 0 8 -3.58496 8 -8v-16
c0 -4.41504 -3.58496 -8 -8 -8h-112c-4.41504 0 -8 3.58496 -8 8v16c0 4.41504 3.58496 8 8 8h40v192h-176v-56c0 -4.41504 -3.58496 -8 -8 -8h-16c-4.41504 0 -8 3.58496 -8 8v72c0 8.83105 7.16895 16 16 16h416z" />
    <glyph glyph-name="play" unicode="&#xf04b;" horiz-adv-x="448" 
d="M424.4 233.3c31.5 -18.5 31.3994 -64.0996 0 -82.5996l-352 -208c-31.7002 -18.7998 -72.4004 3.7998 -72.4004 41.2998v416.1c0 41.8008 43.7998 58.2002 72.4004 41.3008zM408.2 178.2c10.3994 6.2002 10.3994 21.3994 -0.100586 27.5996l-352 208.101
c-7.69922 4.59961 -24.0996 2.5 -24.0996 -13.8008v-416.1c0 -12.5996 13.5996 -19.9004 24.2002 -13.7998z" />
    <glyph glyph-name="pause" unicode="&#xf04c;" horiz-adv-x="448" 
d="M48 -31c-26.5 0 -48 21.5 -48 48v352c0 26.5 21.5 48 48 48h96c26.5 0 48 -21.5 48 -48v-352c0 -26.5 -21.5 -48 -48 -48h-96zM32 369v-352c0 -8.7998 7.2002 -16 16 -16h96c8.7998 0 16 7.2002 16 16v352c0 8.7998 -7.2002 16 -16 16h-96c-8.7998 0 -16 -7.2002 -16 -16
zM304 -31c-26.5 0 -48 21.5 -48 48v352c0 26.5 21.5 48 48 48h96c26.5 0 48 -21.5 48 -48v-352c0 -26.5 -21.5 -48 -48 -48h-96zM288 369v-352c0 -8.7998 7.2002 -16 16 -16h96c8.7998 0 16 7.2002 16 16v352c0 8.7998 -7.2002 16 -16 16h-96c-8.7998 0 -16 -7.2002 -16 -16
z" />
    <glyph glyph-name="stop" unicode="&#xf04d;" horiz-adv-x="448" 
d="M400 416c26.5 0 48 -21.5 48 -48v-352c0 -26.5 -21.5 -48 -48 -48h-352c-26.5 0 -48 21.5 -48 48v352c0 26.5 21.5 48 48 48h352zM416 16v352c0 8.7998 -7.2002 16 -16 16h-352c-8.7998 0 -16 -7.2002 -16 -16v-352c0 -8.7998 7.2002 -16 16 -16h352
c8.7998 0 16 7.2002 16 16z" />
    <glyph glyph-name="minus-circle" unicode="&#xf056;" 
d="M140 174c-6.59961 0 -12 5.40039 -12 12v12c0 6.59961 5.40039 12 12 12h232c6.59961 0 12 -5.40039 12 -12v-12c0 -6.59961 -5.40039 -12 -12 -12h-232zM504 192c0 -137 -111 -248 -248 -248s-248 111 -248 248s111 248 248 248s248 -111 248 -248zM472 192
c0 119.9 -97.2998 216 -216 216c-119.9 0 -216 -97.2998 -216 -216c0 -119.9 97.2998 -216 216 -216c119.9 0 216 97.2998 216 216z" />
    <glyph glyph-name="calendar-alt" unicode="&#xf073;" horiz-adv-x="448" 
d="M400 384c26.5 0 48 -21.5 48 -48v-352c0 -26.5 -21.5 -48 -48 -48h-352c-26.5 0 -48 21.5 -48 48v352c0 26.5 21.5 48 48 48h48v52c0 6.59961 5.40039 12 12 12h8c6.59961 0 12 -5.40039 12 -12v-52h192v52c0 6.59961 5.40039 12 12 12h8c6.59961 0 12 -5.40039 12 -12
v-52h48zM48 352c-8.7998 0 -16 -7.2002 -16 -16v-48h384v48c0 8.7998 -7.2002 16 -16 16h-352zM400 -32c8.7998 0 16 7.2002 16 16v272h-384v-272c0 -8.7998 7.2002 -16 16 -16h352zM148 128h-40c-6.59961 0 -12 5.40039 -12 12v40c0 6.59961 5.40039 12 12 12h40
c6.59961 0 12 -5.40039 12 -12v-40c0 -6.59961 -5.40039 -12 -12 -12zM244 128h-40c-6.59961 0 -12 5.40039 -12 12v40c0 6.59961 5.40039 12 12 12h40c6.59961 0 12 -5.40039 12 -12v-40c0 -6.59961 -5.40039 -12 -12 -12zM340 128h-40c-6.59961 0 -12 5.40039 -12 12v40
c0 6.59961 5.40039 12 12 12h40c6.59961 0 12 -5.40039 12 -12v-40c0 -6.59961 -5.40039 -12 -12 -12zM244 32h-40c-6.59961 0 -12 5.40039 -12 12v40c0 6.59961 5.40039 12 12 12h40c6.59961 0 12 -5.40039 12 -12v-40c0 -6.59961 -5.40039 -12 -12 -12zM148 32h-40
c-6.59961 0 -12 5.40039 -12 12v40c0 6.59961 5.40039 12 12 12h40c6.59961 0 12 -5.40039 12 -12v-40c0 -6.59961 -5.40039 -12 -12 -12zM340 32h-40c-6.59961 0 -12 5.40039 -12 12v40c0 6.59961 5.40039 12 12 12h40c6.59961 0 12 -5.40039 12 -12v-40
c0 -6.59961 -5.40039 -12 -12 -12z" />
    <glyph glyph-name="thumbtack" unicode="&#xf08d;" horiz-adv-x="384" 
d="M300.8 244.1c48.2998 -27.5996 83.2002 -74.5 83.1006 -131.3c0 -8.7998 -7.2002 -16 -16 -16h-160v-120.8c0 -0.599609 0 -1.2998 -0.200195 -1.90039l-8 -32c-2 -8.09961 -13.5 -8 -15.5 0l-8 32c-0.100586 0.600586 -0.200195 1.2002 -0.200195 1.90039v120.8h-160
c-8.7998 0 -16 7.2002 -16 16c0 56.7998 34.9004 103.7 83.2002 131.3l10.0996 75.9004h-37.2998c-13.2002 0 -24 10.7998 -24 24v80c0 13.2002 10.7998 24 24 24h272c13.2002 0 24 -10.7998 24 -24v-80c0 -13.2002 -10.7998 -24 -24 -24h-37.2998zM33.2998 128.8
v-0.0996094h317.5c-6.7998 42.7002 -39.5 76.2998 -79.5 94.5l-15.2998 128.8h64v64h-256v-64h64l-15.2002 -128.7c-39.8994 -18.0996 -72.7002 -51.5996 -79.5 -94.5z" />
    <glyph glyph-name="phone" unicode="&#xf095;" 
d="M487.8 423.9c14.2002 -3.2002 24.2002 -15.8008 24.2002 -30.4004c0 -253.3 -205.3 -457.5 -457.5 -457.5c-14.5996 0 -27.2002 10 -30.5 24.2998l-23.2002 100.7c-3.39941 14.7002 4.2002 29.7002 18.1006 35.7002l108.399 46.5
c12.7002 5.5 27.7002 1.7998 36.5 -8.90039l44.1006 -53.8994c69.2998 34 125.6 90.3994 159.6 159.6l-53.9004 44.0996c-10.6992 8.80078 -14.3994 23.8008 -8.89941 36.5l46.5 108.5c6 13.9004 21.0996 21.5 35.7998 18.1006zM55.0996 -32
c234.5 0.299805 424.601 190.3 424.801 424.8l-99.6006 23l-46 -107.399l72.7998 -59.5c-48.3994 -103.2 -104.5 -159.5 -208.1 -208.101l-59.5 72.7998l-107.4 -46z" />
    <glyph glyph-name="certificate" unicode="&#xf0a3;" 
d="M495.768 175.708c30.0391 -28.7861 16.251 -79.5381 -23.8311 -89.3672l-22.7666 -5.81055l6.46387 -22.6982c11.1494 -39.9414 -25.9766 -76.5361 -65.4492 -65.4502l-22.6719 6.46094l-5.80664 -22.7666c-9.89844 -40.4258 -61.1953 -53.6465 -89.4521 -23.7461
l-16.2539 16.6201l-16.3389 -16.708c-28.501 -29.7734 -79.4365 -16.7422 -89.3662 23.8359l-5.80664 22.7666l-22.6719 -6.46094c-39.1943 -10.9785 -76.6699 25.2471 -65.4492 65.4502l6.46387 22.6982l-22.7676 5.81055
c-40.0811 9.82812 -53.8701 60.5791 -23.8301 89.3652l16.7188 16.3623l-16.7197 16.3623c-30.0391 28.7861 -16.25 79.5381 23.8311 89.3652l22.7666 5.81152l-6.46387 22.6973c-11.2285 40.2266 26.3086 76.4424 65.4492 65.4502l22.6719 -6.46094l5.80664 22.7686
c9.87012 40.3066 61.082 53.4395 89.4053 23.793l16.3008 -16.791l16.2988 16.792c28.5908 29.9277 79.627 16.0898 89.4043 -23.7832l5.80859 -22.7783l22.6719 6.46094c39.334 11.0176 76.6816 -25.4541 65.4492 -65.4512l-6.46387 -22.6973l22.7676 -5.81152
c40.0811 -9.82812 53.8701 -60.5791 23.8301 -89.3652l-16.7188 -16.3613zM464.201 117.395c15.7383 3.76465 21.3203 23.9463 9.33105 35.2979l-40.2373 39.3789l40.2373 39.3789c11.9951 11.3535 6.40137 31.5342 -9.33105 35.2959l-54.8193 13.9912l15.4531 54.2627
c4.36719 15.6084 -10.3496 30.3301 -25.9531 25.9619l-54.2451 -15.458l-13.9854 54.8369c-3.70215 15.4863 -24.1064 21.1504 -35.2852 9.33398l-39.3662 -40.5479l-39.3662 40.5479c-11.0518 11.6826 -31.542 6.33008 -35.2852 -9.33398l-13.9854 -54.8369
l-54.2451 15.458c-15.6074 4.37012 -30.3193 -10.3564 -25.9531 -25.9619l15.4531 -54.2637l-54.8193 -13.9912c-15.7383 -3.76367 -21.3203 -23.9463 -9.33105 -35.2959l40.2373 -39.3789l-40.2373 -39.3789c-11.9951 -11.3555 -6.40137 -31.5352 9.33105 -35.2979
l54.8193 -13.9902l-15.4531 -54.2637c-4.36719 -15.6074 10.3496 -30.3301 25.9531 -25.9619l54.2451 15.458l13.9854 -54.8369c3.88574 -16.2529 24.2344 -21.0146 35.2852 -9.33398l39.3662 40.251l39.3652 -40.25c10.9375 -11.8018 31.4883 -6.5498 35.2852 9.33398
l13.9863 54.8369l54.2451 -15.458c15.6074 -4.37012 30.3193 10.3574 25.9531 25.9619l-15.4531 54.2637z" />
    <glyph glyph-name="copy" unicode="&#xf0c5;" horiz-adv-x="448" 
d="M433.941 382.059c8.68848 -8.68848 14.0586 -20.6943 14.0586 -33.9404v-268.118c0 -26.5098 -21.4902 -48 -48 -48h-80v-48c0 -26.5098 -21.4902 -48 -48 -48h-224c-26.5098 0 -48 21.4902 -48 48v320c0 26.5098 21.4902 48 48 48h80v48c0 26.5098 21.4902 48 48 48
h172.118c13.2461 0 25.252 -5.37012 33.9404 -14.0586zM352 415.509v-63.5088h63.5078c-0.705078 2.85547 -2.17871 5.41699 -4.19434 7.43066l-51.8828 51.8838c-2.01367 2.01562 -4.5752 3.49023 -7.43066 4.19434zM288 -16v48h-112c-26.5098 0 -48 21.4902 -48 48v240
h-80c-8.82227 0 -16 -7.17773 -16 -16v-320c0 -8.82227 7.17773 -16 16 -16h224c8.82227 0 16 7.17773 16 16zM416 80v240h-72c-13.2002 0 -24 10.7998 -24 24v72h-144c-8.82227 0 -16 -7.17773 -16 -16v-320c0 -8.82227 7.17773 -16 16 -16h224c8.82227 0 16 7.17773 16 16
z" />
    <glyph glyph-name="save" unicode="&#xf0c7;" horiz-adv-x="448" 
d="M433.941 318.059c8.68848 -8.68848 14.0586 -20.6943 14.0586 -33.9404v-268.118c0 -26.5098 -21.4902 -48 -48 -48h-352c-26.5098 0 -48 21.4902 -48 48v352c0 26.5098 21.4902 48 48 48h268.118c13.2461 0 25.252 -5.37012 33.9404 -14.0586zM288 384h-192v-96h192v96z
M416 16v268.118c0 0.0146484 0.00292969 0.03125 0.00292969 0.0458984c0 4.40234 -1.79395 8.38867 -4.68848 11.2676l-83.8828 83.8828c-2.01367 2.01562 -4.57617 3.49023 -7.43164 4.19434v-103.509c0 -13.2549 -10.7451 -24 -24 -24h-208
c-13.2549 0 -24 10.7451 -24 24v104h-16c-8.82227 0 -16 -7.17773 -16 -16v-352c0 -8.82227 7.17773 -16 16 -16h352c8.82227 0 16 7.17773 16 16zM224 216c48.5234 0 88 -39.4766 88 -88s-39.4766 -88 -88 -88s-88 39.4766 -88 88s39.4766 88 88 88zM224 72
c30.8789 0 56 25.1211 56 56s-25.1211 56 -56 56s-56 -25.1211 -56 -56s25.1211 -56 56 -56z" />
    <glyph glyph-name="square" unicode="&#xf0c8;" horiz-adv-x="448" 
d="M400 416c26.5 0 48 -21.5 48 -48v-352c0 -26.5 -21.5 -48 -48 -48h-352c-26.5 0 -48 21.5 -48 48v352c0 26.5 21.5 48 48 48h352zM416 16v352c0 8.7998 -7.2002 16 -16 16h-352c-8.7998 0 -16 -7.2002 -16 -16v-352c0 -8.7998 7.2002 -16 16 -16h352
c8.7998 0 16 7.2002 16 16z" />
    <glyph glyph-name="sort" unicode="&#xf0dc;" horiz-adv-x="320" 
d="M288 160c28.4004 0 42.7002 -34.5 22.7002 -54.5996l-128 -128c-12.5 -12.5 -32.7998 -12.5 -45.2998 0l-128 128c-20.2002 20.0996 -5.80078 54.5996 22.5996 54.5996h256zM160 0l128 128h-256zM32 224c-28.4004 0 -42.7002 34.5 -22.7002 54.5996l128 128
c12.5 12.5 32.7998 12.5 45.2998 0l128 -128c20.2002 -20.0996 5.80078 -54.5996 -22.5996 -54.5996h-256zM160 384l-128 -128h256z" />
    <glyph glyph-name="sort-down" unicode="&#xf0dd;" horiz-adv-x="320" 
d="M287.968 160c28.4824 0 42.7275 -34.5283 22.6279 -54.627l-127.968 -128c-12.4971 -12.4971 -32.7588 -12.4961 -45.2549 0l-127.962 128c-20.1396 20.1387 -5.79785 54.627 22.627 54.627h255.93zM160 0l128 128h-256z" />
    <glyph glyph-name="sort-up" unicode="&#xf0de;" horiz-adv-x="320" 
d="M32.0322 224c-28.4824 0 -42.7275 34.5283 -22.6279 54.627l127.968 128c12.4971 12.4971 32.7588 12.4961 45.2549 0l127.962 -128c20.1396 -20.1387 5.79785 -54.627 -22.627 -54.627h-255.93zM160 384l-128 -128h256z" />
    <glyph glyph-name="envelope" unicode="&#xf0e0;" 
d="M464 384c26.5 0 48 -21.5 48 -48v-288c0 -26.5 -21.5 -48 -48 -48h-416c-26.5 0 -48 21.5 -48 48v288c0 26.5 21.5 48 48 48h416zM48 352c-8.7998 0 -16 -7.2002 -16 -16v-41.4004c21.9004 -18.5 53.2002 -44 150.6 -121.3
c16.8008 -13.3994 50.2002 -45.7002 73.4004 -45.2998c23.2002 -0.400391 56.5 31.9004 73.4004 45.2998c97.3994 77.2998 128.699 102.8 150.6 121.3v41.4004c0 8.7998 -7.2002 16 -16 16h-416zM464 32c8.7998 0 16 7.2002 16 16v205
c-22.7998 -18.7002 -58.7998 -47.5996 -130.7 -104.7c-21 -16.7998 -56.8994 -52.5996 -93.2998 -52.2998c-36.5996 -0.200195 -72.7998 35.9004 -93.2998 52.2998c-71.9004 57.1006 -107.9 86 -130.7 104.7v-205c0 -8.7998 7.2002 -16 16 -16h416z" />
    <glyph glyph-name="spinner" unicode="&#xf110;" 
d="M288 416c0 -17.6729 -14.3271 -32 -32 -32s-32 14.3271 -32 32s14.3271 32 32 32s32 -14.3271 32 -32zM256 0c17.6729 0 32 -14.3271 32 -32s-14.3271 -32 -32 -32s-32 14.3271 -32 32s14.3271 32 32 32zM512 192c0 -17.6729 -14.3271 -32 -32 -32s-32 14.3271 -32 32
s14.3271 32 32 32s32 -14.3271 32 -32zM64 192c0 -17.6729 -14.3271 -32 -32 -32s-32 14.3271 -32 32s14.3271 32 32 32s32 -14.3271 32 -32zM97.6084 65.6084c17.6729 0 32 -14.3271 32 -32c0 -17.6738 -14.3271 -32 -32 -32c-17.6738 0 -32 14.3262 -32 32
c0 17.6729 14.3262 32 32 32zM414.392 65.6084c17.6738 0 32 -14.3271 32 -32c0 -17.6738 -14.3262 -32 -32 -32c-17.6729 0 -32 14.3262 -32 32c0 17.6729 14.3271 32 32 32zM97.6084 382.392c17.6729 0 32 -14.3262 32 -32c0 -17.6729 -14.3271 -32 -32 -32
c-17.6738 0 -32 14.3271 -32 32c0 17.6738 14.3262 32 32 32z" />
    <glyph glyph-name="circle" unicode="&#xf111;" 
d="M256 440c137 0 248 -111 248 -248s-111 -248 -248 -248s-248 111 -248 248s111 248 248 248zM472 192c0 119.9 -97.2998 216 -216 216c-119.9 0 -216 -97.2998 -216 -216c0 -119.9 97.2998 -216 216 -216c119.9 0 216 97.2998 216 216z" />
    <glyph glyph-name="info" unicode="&#xf129;" horiz-adv-x="256" 
d="M208 79.333c22.6729 -3.81934 40 -23.5908 40 -47.333v-48c0 -26.4668 -21.5332 -48 -48 -48h-144c-26.4668 0 -48 21.5332 -48 48v48c0 23.7422 17.3271 43.5137 40 47.334v65.333c-22.6729 3.81934 -40 23.5908 -40 47.333v48c0 26.4668 21.5332 48 48 48h0.503906
c-15.2295 16.9961 -24.5039 39.4355 -24.5039 64c0 52.9346 43.0654 96 96 96s96 -43.0654 96 -96c0 -29.7012 -13.5576 -56.2959 -34.8105 -73.9189c11.4307 -8.78223 18.8105 -22.5859 18.8105 -38.0811v-160.667zM128 416c-35.3457 0 -64 -28.6543 -64 -64
s28.6543 -64 64 -64s64 28.6543 64 64s-28.6543 64 -64 64zM216 -16v48c0 8.83691 -7.16309 16 -16 16h-24v192c0 8.83691 -7.16309 16 -16 16h-104c-8.83691 0 -16 -7.16309 -16 -16v-48c0 -8.83691 7.16309 -16 16 -16h24v-128h-24c-8.83691 0 -16 -7.16309 -16 -16v-48
c0 -8.83691 7.16309 -16 16 -16h144c8.83691 0 16 7.16309 16 16z" />
    <glyph glyph-name="exclamation" unicode="&#xf12a;" horiz-adv-x="192" 
d="M139.315 416h-86.6309c-6.88867 0 -12.3633 -5.78711 -11.9814 -12.666l14.667 -264c0.353516 -6.35938 5.61328 -11.334 11.9814 -11.334h57.2969c6.36816 0 11.6289 4.97461 11.9814 11.334l14.667 264c0.381836 6.87891 -5.09277 12.666 -11.9814 12.666zM96 96
c-35.29 0 -64 -28.71 -64 -64s28.71 -64 64 -64s64 28.71 64 64s-28.71 64 -64 64zM139.315 448c25.2324 0 45.332 -21.251 43.9316 -46.4414l-14.667 -264c-0.651367 -11.7275 -5.86328 -22.1777 -13.8545 -29.665c22.6611 -17.5752 37.2744 -45.0615 37.2744 -75.8936
c0 -52.9346 -43.0654 -96 -96 -96s-96 43.0654 -96 96c0 30.832 14.6133 58.3184 37.2744 75.8936c-7.99023 7.4873 -13.2021 17.9375 -13.8545 29.665l-14.667 264c-1.40039 25.1953 18.7041 46.4414 43.9316 46.4414h86.6309z" />
    <glyph glyph-name="superscript" unicode="&#xf12b;" 
d="M344 384c4.41504 0 8 -3.58496 8 -8v-16c0 -4.41504 -3.58496 -8 -8 -8h-47.2197l-101.78 -160l101.78 -160h47.2197c4.41504 0 8 -3.58496 8 -8v-16c0 -4.41504 -3.58496 -8 -8 -8h-56c-5.67383 0.00292969 -10.6514 2.94922 -13.4902 7.41016l-98.5098 154.79
l-98.5 -154.79c-2.83984 -4.46387 -7.82227 -7.41016 -13.5 -7.41016h-56c-4.41504 0 -8 3.58496 -8 8v16c0 4.41504 3.58496 8 8 8h47.2197l101.78 160l-101.78 160h-47.2197c-4.41504 0 -8 3.58496 -8 8v16c0 4.41504 3.58496 8 8 8h56
c5.67773 0 10.6602 -2.94629 13.5 -7.41016l98.5 -154.79l98.5098 154.79c2.83887 4.46094 7.81641 7.40723 13.4902 7.41016h56zM504 256c4.41504 0 8 -3.58496 8 -8v-16c0 -4.41504 -3.58496 -8 -8 -8h-112c-4.41504 0 -8 3.58496 -8 8v16c0 4.41504 3.58496 8 8 8h40v128
h-16c-8.82422 0.0078125 -15.9775 7.18945 -15.9775 16.0156c0 2.57129 0.608398 5.00098 1.6875 7.1543l16 32c2.62598 5.23926 8.03613 8.8252 14.29 8.83008h16c8.83105 0 16 -7.16895 16 -16v-176h40z" />
    <glyph glyph-name="subscript" unicode="&#xf12c;" 
d="M344 384c4.41504 0 8 -3.58496 8 -8v-16c0 -4.41504 -3.58496 -8 -8 -8h-47.2197l-101.78 -160l101.78 -160h47.2197c4.41504 0 8 -3.58496 8 -8v-16c0 -4.41504 -3.58496 -8 -8 -8h-56c-5.67383 0.00292969 -10.6514 2.94922 -13.4902 7.41016l-98.5098 154.79
l-98.5 -154.79c-2.83984 -4.46387 -7.82227 -7.41016 -13.5 -7.41016h-56c-4.41504 0 -8 3.58496 -8 8v16c0 4.41504 3.58496 8 8 8h47.2197l101.78 160l-101.78 160h-47.2197c-4.41504 0 -8 3.58496 -8 8v16c0 4.41504 3.58496 8 8 8h56
c5.67773 0 10.6602 -2.94629 13.5 -7.41016l98.5 -154.79l98.5098 154.79c2.83887 4.46094 7.81641 7.40723 13.4902 7.41016h56zM504 -32c4.41504 0 8 -3.58496 8 -8v-16c0 -4.41504 -3.58496 -8 -8 -8h-112c-4.41504 0 -8 3.58496 -8 8v16c0 4.41504 3.58496 8 8 8h40v128
h-16c-8.82422 0.0078125 -15.9775 7.18945 -15.9775 16.0156c0 2.57129 0.608398 5.00098 1.6875 7.1543l16 32c2.62598 5.23926 8.03613 8.8252 14.29 8.83008h16c8.83105 0 16 -7.16895 16 -16v-176h40z" />
    <glyph glyph-name="shield" unicode="&#xf132;" 
d="M466.5 364.3c17.7998 -7.39941 29.5 -24.8994 29.5 -44.2998c0 -221.3 -135.9 -344.6 -221.6 -380.3c-11.8008 -4.90039 -25.1006 -4.90039 -36.9004 0c-107 44.5996 -221.5 181.8 -221.5 380.3c0 19.4004 11.7002 36.9004 29.5996 44.2998l192 80
c5.67578 2.35449 11.96 3.6543 18.4824 3.6543c6.52148 0 12.7432 -1.2998 18.418 -3.6543zM262.2 -30.7998c97.7998 38.7998 201.8 174.8 201.7 350.8c0 6.5 -3.80078 12.2998 -9.80078 14.7998l-192 80c-4 1.7002 -8.5 1.60059 -12.2998 0l-192 -80
c-5.89941 -2.5 -9.7998 -8.2998 -9.7998 -14.7998c0 -176 104 -312 201.9 -350.8c4 -1.60059 8.39941 -1.60059 12.2998 0z" />
    <glyph glyph-name="calendar" unicode="&#xf133;" horiz-adv-x="448" 
d="M400 384c26.5098 0 48 -21.4902 48 -48v-352c0 -26.5098 -21.4902 -48 -48 -48h-352c-26.5098 0 -48 21.4902 -48 48v352c0 26.5098 21.4902 48 48 48h48v52c0 6.62695 5.37305 12 12 12h8c6.62695 0 12 -5.37305 12 -12v-52h192v52c0 6.62695 5.37305 12 12 12h8
c6.62695 0 12 -5.37305 12 -12v-52h48zM48 352c-8.82227 0 -16 -7.17773 -16 -16v-48h384v48c0 8.82227 -7.17773 16 -16 16h-352zM400 -32c8.82227 0 16 7.17773 16 16v272h-384v-272c0 -8.82227 7.17773 -16 16 -16h352z" />
    <glyph glyph-name="play-circle" unicode="&#xf144;" 
d="M256 -56c-137 0 -248 111 -248 248s111 248 248 248s248 -111 248 -248s-111 -248 -248 -248zM40 192c0 -119.9 97.2998 -216 216 -216c119.9 0 216 97.2998 216 216c0 119.9 -97.2998 216 -216 216c-119.9 0 -216 -97.2998 -216 -216zM371.7 210
c16.3994 -9.2002 16.3994 -32.9004 0 -42l-176 -101c-15.9004 -8.7998 -35.7002 2.59961 -35.7002 21v208c0 18.5 19.9004 29.7998 35.7002 21zM192 112.2c0 -4.60059 5 -7.5 9 -5.2002l134.5 77.2002c3.90039 2.2002 4 7.89941 0.0996094 10.2998l-134.5 81.7002
c-4 2.5 -9.09961 -0.400391 -9.09961 -5.10059v-158.899z" />
    <glyph glyph-name="ticket" unicode="&#xf145;" horiz-adv-x="576" 
d="M544 224c-17.6729 0 -32 -14.3271 -32 -32s14.3271 -32 32 -32h32v-112c0 -26.5098 -21.4902 -48 -48 -48h-480c-26.5098 0 -48 21.4902 -48 48v112h32c17.6729 0 32 14.3271 32 32s-14.3271 32 -32 32h-32v112c0 26.5098 21.4902 48 48 48h480
c26.5098 0 48 -21.4902 48 -48v-112h-32zM544 128c-35.29 0 -64 28.71 -64 64s28.71 64 64 64v80c0 8.82324 -7.17676 16 -16 16h-480c-8.82324 0 -16 -7.17676 -16 -16v-80c35.29 0 64 -28.71 64 -64s-28.71 -64 -64 -64v-80c0 -8.82324 7.17676 -16 16 -16h480
c8.82324 0 16 7.17676 16 16v80z" />
    <glyph glyph-name="file" unicode="&#xf15b;" horiz-adv-x="384" 
d="M369.9 350.1c9 -9 14.0996 -21.2998 14.0996 -34v-332.1c0 -26.5 -21.5 -48 -48 -48h-288c-26.5 0 -48 21.5 -48 48v416c0 26.5 21.5 48 48 48.0996h204.1c12.7002 0 24.9004 -5.09961 33.9004 -14.0996zM347.3 327.4l-83.8994 83.8994
c-2.10059 2.10059 -4.60059 3.5 -7.40039 4.2002v-95.5h95.5c-0.700195 2.7998 -2.09961 5.2998 -4.2002 7.40039zM336 -32c8.7998 0 16 7.2002 16 16v304h-104c-13.2998 0 -24 10.7002 -24 24v104h-176c-8.7998 0 -16 -7.2002 -16 -16v-416c0 -8.7998 7.2002 -16 16 -16
h288z" />
    <glyph glyph-name="file-alt" unicode="&#xf15c;" horiz-adv-x="384" 
d="M369.9 350.1c9 -9 14.0996 -21.2998 14.0996 -34v-332.1c0 -26.5 -21.5 -48 -48 -48h-288c-26.5 0 -48 21.5 -48 48v416c0 26.5 21.5 48 48 48.0996h204.1c12.7002 0 24.9004 -5.09961 33.9004 -14.0996zM347.3 327.4l-83.8994 83.8994
c-2.10059 2.10059 -4.60059 3.5 -7.40039 4.2002v-95.5h95.5c-0.700195 2.7998 -2.09961 5.2998 -4.2002 7.40039zM336 -32c8.7998 0 16 7.2002 16 16v304h-104c-13.2998 0 -24 10.7002 -24 24v104h-176c-8.7998 0 -16 -7.2002 -16 -16v-416c0 -8.7998 7.2002 -16 16 -16
h288zM288 212v-8c0 -6.59961 -5.40039 -12 -12 -12h-168c-6.59961 0 -12 5.40039 -12 12v8c0 6.59961 5.40039 12 12 12h168c6.59961 0 12 -5.40039 12 -12zM288 148v-8c0 -6.59961 -5.40039 -12 -12 -12h-168c-6.59961 0 -12 5.40039 -12 12v8c0 6.59961 5.40039 12 12 12
h168c6.59961 0 12 -5.40039 12 -12zM288 84v-8c0 -6.59961 -5.40039 -12 -12 -12h-168c-6.59961 0 -12 5.40039 -12 12v8c0 6.59961 5.40039 12 12 12h168c6.59961 0 12 -5.40039 12 -12z" />
    <glyph glyph-name="thumbs-up" unicode="&#xf164;" 
d="M496.656 162.317c5.49805 -22.335 2.82812 -49.8789 -9.62793 -69.4053c4.31348 -23.7686 -3.09863 -49.3779 -18.2256 -67.1055c1.91992 -53.9053 -31.0527 -89.8066 -90.335 -89.793c-3.3623 -0.0292969 -35.5078 -0.00292969 -41.0127 0
c-76.7686 -0.0205078 -144.96 40.7266 -177.455 40.7266v-8.74023c0 -17.6729 -14.3271 -32 -32 -32h-96c-17.6729 0 -32 14.3271 -32 32v256c0 17.6729 14.3271 32 32 32h96c10.9307 0 20.5771 -5.48438 26.3496 -13.8477
c3.04688 0.574219 5.84375 1.30078 8.03223 2.22266c21.6182 11.625 57.6045 68.875 81.1738 92.4463c9.89941 9.89844 13.1182 26.4395 16.5254 43.9512c5.70312 29.3096 16.834 67.2275 46.8291 67.2275c59.6074 0 82.9092 -34.6719 82.9082 -93.0801
c0 -30.9062 -11.9756 -52.4492 -20.6953 -69.8174h70.1504c40.6533 0 72.7256 -34.8965 72.7266 -72.5703c0 -20.5322 -5.41699 -37.3408 -15.3438 -50.2148zM32 -32h96v256h-96v-256zM456.017 171.648c15.9834 4.35156 24.083 20.3633 23.9844 40.7266
c-0.0996094 20.3633 -17.9971 40.7266 -40.7266 40.7266h-111.999c0 40.7275 30.5449 59.6289 30.5449 101.817c0 25.5742 0 61.0908 -50.9092 61.0908c-20.3643 -20.3623 -10.1826 -71.2715 -40.7275 -101.816c-33.8779 -33.8789 -68.4746 -101.818 -106.183 -101.818
v-203.635c42.7129 0 104.526 -40.7275 177.455 -40.7275c3.47949 0 37.415 -0.0292969 40.7266 0c38.251 0.368164 65.5059 18.4346 57.2119 70.9746c16.3672 8.7793 28.5371 39.2354 15.0156 61.9961c21.5898 11.0166 21.5898 59.0166 5.60645 70.665zM104 16
c0 -13.2549 -10.7451 -24 -24 -24s-24 10.7451 -24 24s10.7451 24 24 24s24 -10.7451 24 -24z" />
    <glyph glyph-name="thumbs-down" unicode="&#xf165;" 
d="M496.656 221.683c9.92676 -12.874 15.3438 -29.6826 15.3447 -50.2148c-0.000976562 -37.6748 -32.0732 -72.5703 -72.7266 -72.5703h-70.1504c8.71973 -17.3682 20.6953 -38.9111 20.6953 -69.8174c0 -58.4082 -23.3018 -93.0801 -82.9092 -93.0801
c-29.9951 0 -41.126 37.918 -46.8291 67.2285c-3.40723 17.5117 -6.625 34.0518 -16.5254 43.9512c-23.5693 23.5703 -59.5557 80.8203 -81.1738 92.4453c-0.728516 0.306641 -1.53223 0.589844 -2.38184 0.856445v-12.4814c0 -17.6729 -14.3271 -32 -32 -32h-96
c-17.6729 0 -32 14.3271 -32 32v256c0 17.6729 14.3271 32 32 32h96c8.11328 0 15.5146 -3.02539 21.1553 -8h10.8447c35.917 0 100.593 40.0068 177.455 39.9863c5.50488 0.00292969 37.6504 0.0292969 41.0127 0c59.2822 0.0136719 92.2559 -35.8887 90.3359 -89.793
c15.126 -17.7285 22.5391 -43.3369 18.2256 -67.1055c12.4551 -19.5244 15.125 -47.0693 9.62695 -69.4053zM128 128v256h-96v-256h96zM439.273 130.898c22.7295 0 40.627 20.3623 40.7266 40.7266c0.0996094 20.3633 -8 36.375 -23.9834 40.7266
c15.9834 11.6484 15.9834 59.6484 -5.60742 70.665c13.5225 22.7617 1.35156 53.2168 -15.0156 61.9961c8.29297 52.54 -18.9609 70.6064 -57.2119 70.9746c-3.31152 0.0292969 -37.2471 0 -40.7266 0c-71.2725 0 -138.389 -40.7275 -173.09 -40.7275h-4.36523v-203.635
h4.36523c30.5459 0 73.2109 -73.2109 101.817 -101.818c30.5449 -30.5449 20.3643 -81.4531 40.7275 -101.816c50.9092 0 50.9092 35.5166 50.9092 61.0908c0 42.1885 -30.5449 61.0898 -30.5449 101.817h111.999zM104 176c0 -13.2549 -10.7451 -24 -24 -24
s-24 10.7451 -24 24s10.7451 24 24 24s24 -10.7451 24 -24z" />
    <glyph glyph-name="wheelchair" unicode="&#xf193;" horiz-adv-x="448" 
d="M443.875 51.6768l3.15137 -7.35254c2.61035 -6.0918 -0.210938 -13.1465 -6.30371 -15.7568l-42.4209 -19.2734c-7.6582 -3.28418 -17.3447 -0.299805 -21.1748 8.79688l-59.751 141.909h-141.376c-8.05664 0 -14.7314 5.98438 -15.8389 13.7373
c-34.3818 240.677 -31.9502 223.098 -32.1611 226.263c0 27.1299 22.5078 49.0029 49.8701 47.9639c24.8779 -0.945312 45.1494 -21.2158 46.0947 -46.0938c1.03906 -27.3613 -20.834 -49.8701 -47.9648 -49.8701c-3.11523 0 -6.15625 0.306641 -9.10547 0.874023
l9.26758 -64.874h131.838c6.62695 0 12 -5.37305 12 -12v-8c0 -6.62695 -5.37305 -12 -12 -12h-127.266l9.14258 -64h138.123c6.63379 0 12.3223 -4.03418 14.7461 -9.79102l57.752 -137.159l27.6211 12.9287c6.09082 2.61133 13.1455 -0.210938 15.7559 -6.30176z
M316.387 79.8877l18.4141 -43.7324c-28.3828 -59.1865 -88.8945 -100.155 -158.801 -100.155c-97.0469 0 -176 78.9531 -176 176c0 74.9189 47.0586 139.043 113.165 164.396l4.6709 -32.6797c-50.5098 -22.3916 -85.8359 -73.0029 -85.8359 -131.717
c0 -79.4014 64.5986 -144 144 -144c68.3662 0 125.755 47.8926 140.387 111.888z" />
    <glyph glyph-name="space-shuttle" unicode="&#xf197;" horiz-adv-x="640" 
d="M448 280c106.039 0 192 -39.3994 192 -88s-85.9609 -88 -192 -88c-240 0 -208 -136 -351.997 -136h-16.0029c-26.5098 0 -48 28.6543 -48 64v64c-23.1807 0 -32 10.0166 -32 24v144c0 13.9678 8.80273 24 32 24v64c0 35.3457 21.4902 64 48 64h16.0029
c143.997 0 111.997 -136 351.997 -136zM296 280c-76.332 19.083 -108.029 87.5908 -168 100.817v-92.8174c13.4814 0 26.5225 -2.75879 38.4951 -8h129.505zM127.046 128c35.1729 0 64.4922 27.9785 64.9482 63.1504c0.463867 35.7354 -28.3652 64.8496 -63.9941 64.8496
h-64v-48h48c17.6729 0 32 -7.16309 32 -16s-14.3271 -16 -32 -16h-48v-48h63.0459zM64 352v-64h32v96h-16c-5.64062 0 -16 -12.1494 -16 -32zM64 32c0 -19.8506 10.3594 -32 16 -32h16v96h-32v-64zM128 3.18262c59.9756 13.2275 91.6729 81.7354 168 100.818h-130.184
c-11.8076 -5.12012 -24.6201 -7.86328 -37.8164 -7.98926v-92.8291zM448 136c41.5498 0 88 0 128 24v64c-40 24 -86.5312 24 -128 24h-242.004c23.6074 -32.7227 24.501 -78.1436 -0.214844 -112h242.219zM488.014 152c-4.42578 0 -8.01367 3.58203 -8.01367 8v64
c0 4.41797 3.58789 8 8.01367 8c31.998 0 31.9648 -80 0 -80z" />
    <glyph glyph-name="language" unicode="&#xf1ab;" horiz-adv-x="640" 
d="M616 352c13.2549 0 24 -10.7451 24 -24v-272c0 -13.2549 -10.7451 -24 -24 -24h-592c-13.2549 0 -24 10.7451 -24 24v272c0 13.2549 10.7451 24 24 24h592zM304 64v256h-272v-256h272zM608 64v256h-272v-256h272zM91.0879 96
c-8.27637 0 -14.0664 8.17969 -11.3184 15.9863l59.1553 168c1.64453 4.66797 6.0918 8.01367 11.3193 8.01367h19.5127c5.22754 0 9.67578 -3.34668 11.3193 -8.01465l59.1553 -168c2.74707 -7.80566 -3.04297 -15.9854 -11.3193 -15.9854h-10.3389
c-5.31152 0 -9.81934 3.45703 -11.3975 8.24316l-13.5078 40.9727h-67.335l-13.5078 -40.9727c-1.57812 -4.78613 -6.08594 -8.24316 -11.3975 -8.24316h-10.3398zM151.751 224.991l-17.0361 -51.3799h50.2979l-17.0361 51.3799
c-3.51465 10.8174 -7.57129 29.7471 -7.57129 29.7471h-0.541016s-4.32617 -18.9297 -8.11328 -29.7471zM384 236v8c0 6.62695 5.37305 12 12 12h68v20c0 6.62695 5.37305 12 12 12h8c6.62695 0 12 -5.37305 12 -12v-20h68c6.62695 0 12 -5.37305 12 -12v-8
c0 -6.62695 -5.37305 -12 -12 -12h-15.6992c-7.50488 -24.8018 -23.4316 -50.9424 -44.8955 -74.8418c10.0127 -9.08301 20.4746 -17.2656 30.9238 -24.0859c5.31152 -3.4668 6.9873 -10.4756 3.83984 -15.9824l-3.9873 -6.97559
c-3.42871 -6.00098 -11.1875 -7.84473 -16.9922 -4.09082c-13.1455 8.5 -25.3965 18.2363 -36.5605 28.5c-11.7441 -10.4541 -24.5059 -20.1465 -37.9922 -28.6807c-5.76074 -3.64551 -13.4092 -1.69824 -16.791 4.22168l-3.97168 6.94922
c-3.19727 5.59473 -1.37891 12.6719 4.05762 16.1289c11.3828 7.2373 22.2207 15.4287 32.2402 24.2275c-10.0254 11.2715 -18.6709 22.5615 -25.6865 33.0332c-3.83301 5.7207 -2.11035 13.4795 3.80273 17.0098l6.86719 4.09863
c5.46875 3.26465 12.5498 1.70117 16.0918 -3.5918c6.37891 -9.53125 13.7188 -18.9473 21.6768 -27.9531c15.0176 16.9355 26.7207 34.9053 33.5488 52.0332h-118.473c-6.62695 0 -12 5.37305 -12 12z" />
    <glyph glyph-name="file-pdf" unicode="&#xf1c1;" horiz-adv-x="384" 
d="M369.9 350.1c9 -9 14.0996 -21.2998 14.0996 -34v-332.1c0 -26.5 -21.5 -48 -48 -48h-288c-26.5 0 -48 21.5 -48 48v416c0 26.5 21.5 48 48 48.0996h204.1c12.7002 0 24.9004 -5.09961 33.9004 -14.0996zM347.3 327.4l-83.8994 83.8994
c-2.10059 2.10059 -4.60059 3.5 -7.40039 4.2002v-95.5h95.5c-0.700195 2.7998 -2.09961 5.2998 -4.2002 7.40039zM336 -32c8.7998 0 16 7.2002 16 16v304h-104c-13.2998 0 -24 10.7002 -24 24v104h-176c-8.7998 0 -16 -7.2002 -16 -16v-416c0 -8.7998 7.2002 -16 16 -16
h288zM314 139.2c10.4004 -10.4004 9.2002 -40.7002 -18.5 -40.6006c-17 0 -42.7002 7.90039 -64.5996 19.9004c-25.9004 -4.2002 -55.3008 -15.2002 -82 -24c-12 -20.7002 -22.2002 -35.5996 -31.3008 -45.5c-30.1992 -33 -56.5996 -10.4004 -53.0996 6.40039
c4.7002 23.0996 38 41.6992 58.7998 52.3994c12.4004 21.7002 30.2002 60.2002 42.1006 88.6006c-8.7002 33.3994 -13.4004 59.5 -8.40039 77.7998c4.90039 17.8994 40.2002 21.2998 44.5996 -6.7998c5.60059 -17.7002 -2.09961 -46.9004 -6.39941 -64.9004
c9.89941 -26.2002 23.8994 -43.7998 45.0996 -56.5996c18.7002 2.5 60.2002 6.59961 73.7002 -6.7002zM84.7998 50.2002c0 -0.700195 13.4004 5.5 35.5 40.7998c-6.89941 -6.40039 -29.5996 -24.9004 -35.5 -40.7998zM180 272.5
c-2.90039 0 -3.09961 -31.2998 2.09961 -47.5996c5.7002 10.0996 6.60059 47.5996 -2.09961 47.5996zM151.6 113.2c18.5 7.09961 39.6006 17.5 63.9004 22.2002c-13 9.7998 -25.4004 23.7998 -35.0996 41.5c-7.80078 -20.5 -17.5 -43.9004 -28.8008 -63.7002zM305 119.1
c4.2002 2.7002 -2.5 12.1006 -43.5 9.10059c37.7002 -16.1006 43.5 -9.10059 43.5 -9.10059z" />
    <glyph glyph-name="file-word" unicode="&#xf1c2;" horiz-adv-x="384" 
d="M369.9 350.1c9 -9 14.0996 -21.2998 14.0996 -34v-332.1c0 -26.5 -21.5 -48 -48 -48h-288c-26.5 0 -48 21.5 -48 48v416c0 26.5 21.5 48 48 48.0996h204.1c12.7002 0 24.9004 -5.09961 33.9004 -14.0996zM347.3 327.4l-83.8994 83.8994
c-2.10059 2.10059 -4.60059 3.5 -7.40039 4.2002v-95.5h95.5c-0.700195 2.7998 -2.09961 5.2998 -4.2002 7.40039zM336 -32c8.7998 0 16 7.2002 16 16v304h-104c-13.2998 0 -24 10.7002 -24 24v104h-176c-8.7998 0 -16 -7.2002 -16 -16v-416c0 -8.7998 7.2002 -16 16 -16
h288zM282.4 214.5c1.19922 5.5 6.09961 9.5 11.7998 9.5h6.7998c7.7998 0 13.5 -7.40039 11.5996 -15l-42.7998 -168c-1.39941 -5.2998 -9.59961 -9 -15.0996 -9h-14c-5.40039 0 -10.2002 3.7002 -11.6006 8.90039c-36.5 135.899 -30.1992 111.8 -36.6992 142.899
c-3.2002 -19.5 -2.5 -15.2002 -36.7002 -142.899c-1.40039 -5.2002 -6.2002 -8.90039 -11.6006 -8.90039h-17c-5.5 0 -10.2998 3.7998 -11.5996 9.09961c-7.7002 30.6006 -32.7002 130 -42.2002 168c-1.89941 7.60059 3.7998 14.9004 11.6006 14.9004h7.19922
c5.60059 0 10.4004 -3.7998 11.7002 -9.2002c36.5 -151.5 30.2998 -130.5 34.4004 -154.399c2 14.0996 1.09961 12.3994 39.3994 154.699c1.40039 5.30078 6.2002 8.90039 11.6006 8.90039h6.39941c5.40039 0 10.2002 -3.7002 11.6006 -8.90039
c41.0996 -152.5 36 -121.8 41.7998 -150.899c0.900391 10.5996 26.5996 117.5 33.4004 150.3z" />
    <glyph glyph-name="file-excel" unicode="&#xf1c3;" horiz-adv-x="384" 
d="M369.9 350.1c9 -9 14.0996 -21.2998 14.0996 -34v-332.1c0 -26.5 -21.5 -48 -48 -48h-288c-26.5 0 -48 21.5 -48 48v416c0 26.5 21.5 48 48 48.0996h204.1c12.7002 0 24.9004 -5.09961 33.9004 -14.0996zM347.3 327.4l-83.8994 83.8994
c-2.10059 2.10059 -4.60059 3.5 -7.40039 4.2002v-95.5h95.5c-0.700195 2.7998 -2.09961 5.2998 -4.2002 7.40039zM336 -32c8.7998 0 16 7.2002 16 16v304h-104c-13.2998 0 -24 10.7002 -24 24v104h-176c-8.7998 0 -16 -7.2002 -16 -16v-416c0 -8.7998 7.2002 -16 16 -16
h288zM211.7 140l58.3994 -89.5996c5.10059 -8 -0.599609 -18.4004 -10.0996 -18.4004h-3.59961c-4 0 -7.80078 2 -10 5.40039c-10.1006 15.3994 -22.9004 25.8994 -54.4004 82.5996c-9.09961 -20 -17.2002 -24.5 -54.4004 -82.5c-2.19922 -3.40039 -6 -5.5 -10.0996 -5.5
h-3.5c-9.5 0 -15.2002 10.5 -10.0996 18.5l59.0996 89.5l-51.2002 81.7998c-4.89941 7.90039 0.799805 18.2002 10.2002 18.2002h4.09961c4.10059 0 7.90039 -2.09961 10.1006 -5.5c37.3994 -58.5 28.5996 -42.2998 45.7998 -74.5c9.2998 21 14.7002 26 45.7002 74.5
c2.2002 3.40039 6 5.5 10.0996 5.5h4.10059c9.39941 0 15.0996 -10.2002 10.2998 -18.2002z" />
    <glyph glyph-name="file-powerpoint" unicode="&#xf1c4;" horiz-adv-x="384" 
d="M369.9 350.1c9 -9 14.0996 -21.2998 14.0996 -34v-332.1c0 -26.5 -21.5 -48 -48 -48h-288c-26.5 0 -48 21.5 -48 48v416c0 26.5 21.5 48 48 48.0996h204.1c12.7002 0 24.9004 -5.09961 33.9004 -14.0996zM347.3 327.4l-83.8994 83.8994
c-2.10059 2.10059 -4.60059 3.5 -7.40039 4.2002v-95.5h95.5c-0.700195 2.7998 -2.09961 5.2998 -4.2002 7.40039zM336 -32c8.7998 0 16 7.2002 16 16v304h-104c-13.2998 0 -24 10.7002 -24 24v104h-176c-8.7998 0 -16 -7.2002 -16 -16v-416c0 -8.7998 7.2002 -16 16 -16
h288zM204.3 240c43.9004 0 67.7002 -28 67.7002 -66.5996c0 -41.7002 -29 -69 -67.7002 -69h-44.2998v-60.4004c0 -6.59961 -5.40039 -12 -12 -12h-8c-6.59961 0 -12 5.40039 -12 12v184c0 6.59961 5.40039 12 12 12h64.2998zM230.3 142.3
c15 15.1006 15.2998 46.5 0 61.6006c-7.5 7.39941 -17.7002 11.0996 -30.5996 11.0996h-39.7002v-84.0996h39.2998c13.2002 0 23.5 3.7998 31 11.3994z" />
    <glyph glyph-name="file-image" unicode="&#xf1c5;" horiz-adv-x="384" 
d="M159 112l87.5 87.5c4.7002 4.7002 12.2998 4.7002 17 0l55.5 -55.5v-144h-256l0.5 112.5l39 39c4.7002 4.7002 12.2998 4.7002 17 0zM255 162.7c-18.2998 -18.2998 -75.7002 -75.6006 -96 -95.9004l-48 48l-15.5996 -15.5996l-0.300781 -67.2002h191.9v98.7002zM127 192
c-35.2998 0 -64 28.7002 -64 64s28.7002 64 64 64s64 -28.7002 64 -64s-28.7002 -64 -64 -64zM127 288c-17.5996 0 -32 -14.4004 -32 -32s14.4004 -32 32 -32s32 14.4004 32 32s-14.4004 32 -32 32zM369.9 350.1c9 -9 14.0996 -21.2998 14.0996 -34v-332.1
c0 -26.5 -21.5 -48 -48 -48h-288c-26.5 0 -48 21.5 -48 48v416c0 26.5 21.5 48 48 48.0996h204.1c12.7002 0 24.9004 -5.09961 33.9004 -14.0996zM256 415.5v-95.5h95.5c-0.700195 2.7998 -2.09961 5.2998 -4.2002 7.40039l-83.8994 83.8994
c-2.10059 2.10059 -4.60059 3.5 -7.40039 4.2002zM352 -16v304h-104c-13.2998 0 -24 10.7002 -24 24v104h-176c-8.7998 0 -16 -7.2002 -16 -16v-416c0 -8.7998 7.2002 -16 16 -16h288c8.7998 0 16 7.2002 16 16z" />
    <glyph glyph-name="file-archive" unicode="&#xf1c6;" horiz-adv-x="384" 
d="M128 352h32v-32h-32v32zM193.9 182.4l17.5 -87.6006c6.5 -32.5 -18.3008 -62.7998 -51.4004 -62.7998s-57.9004 30.2998 -51.4004 62.7998l19.4004 97.2002v32h32v-32h22.0996c5.80078 0 10.7002 -4 11.8008 -9.59961zM160.3 57.9004
c17.9004 0 32.4004 12.0996 32.4004 27c0 14.8994 -14.5 27 -32.4004 27c-17.8994 0 -32.3994 -12.1006 -32.3994 -27c0 -14.9004 14.5 -27 32.3994 -27zM128 288h32v-32h-32v32zM192 384v-32h-32v32h32zM369.9 350.1c9 -9 14.0996 -21.2998 14.0996 -34v-332.1
c0 -26.5 -21.5 -48 -48 -48h-288c-26.5 0 -48 21.5 -48 48v416c0 26.5 21.5 48 48 48.0996h204.1c12.7002 0 24.9004 -5.09961 33.9004 -14.0996zM256 415.5v-95.5h95.5c-0.700195 2.7998 -2.2002 5.40039 -4.2002 7.40039l-83.8994 83.8994
c-2 2.10059 -4.60059 3.5 -7.40039 4.2002zM352 -16v304h-104c-13.2998 0 -24 10.7002 -24 24v104h-64.2998v-32h-32v32h-79.7002c-8.7998 0 -16 -7.2002 -16 -16v-416c0 -8.7998 7.2002 -16 16 -16h288c8.7998 0 16 7.2002 16 16zM192 256v-32h-32v32h32zM192 320v-32h-32
v32h32z" />
    <glyph glyph-name="file-audio" unicode="&#xf1c7;" horiz-adv-x="384" 
d="M369.9 350.1c9 -9 14.0996 -21.2998 14.0996 -34v-332.1c0 -26.5 -21.5 -48 -48 -48h-288c-26.5 0 -48 21.5 -48 48v416c0 26.5 21.5 48 48 48.0996h204.1c12.7002 0 24.9004 -5.09961 33.9004 -14.0996zM347.3 327.4l-83.8994 83.8994
c-2.10059 2.10059 -4.60059 3.5 -7.40039 4.2002v-95.5h95.5c-0.700195 2.7998 -2.09961 5.2998 -4.2002 7.40039zM336 -32c8.7998 0 16 7.2002 16 16v304h-104c-13.2998 0 -24 10.7002 -24 24v104h-176c-8.7998 0 -16 -7.2002 -16 -16v-416c0 -8.7998 7.2002 -16 16 -16
h288zM258.4 34.5996c-2.5 -1.7998 -5.40039 -2.59961 -8.5 -2.59961c-4.80078 0 -9.5 2.2998 -12.4004 6.59961c-4.7002 6.80078 -2.90039 16.2002 4 20.8008c30.2002 20.5 48.2998 54.3994 48.2998 90.8994c0 38.5 -20.5996 74.6006 -53.7002 94.2998
c-7.09961 4.30078 -9.39941 13.5 -5.19922 20.6006c4.2998 7.09961 13.5 9.39941 20.5996 5.2002c20.5 -12.2002 37.5996 -29.4004 49.5996 -50c12.4004 -21.2002 18.9004 -45.4004 18.9004 -70.1006c0 -46.3994 -23.0996 -89.7002 -61.5996 -115.7zM231.8 72.9004
c-2.59961 -1.7002 -5.5 -2.5 -8.2998 -2.40039c-4.7998 0 -9.59961 2.2998 -12.5 6.7002c-4.59961 6.89941 -2.7002 16.2002 4.2002 20.7998c17.5996 11.7002 28.0996 31.2998 28.0996 52.4004c0 22.2998 -12 43.0996 -31.2998 54.2998
c-7.09961 4.2002 -9.59961 13.2998 -5.40039 20.5c4.2002 7.09961 13.3008 9.59961 20.5 5.39941c28.5 -16.5996 46.2002 -47.3994 46.2002 -80.2998c0 -31.2002 -15.5 -60.0996 -41.5 -77.3994zM204.8 111.1c-2.5 -1.59961 -5.2002 -2.2998 -7.7002 -2.2998
c-5.09961 0 -10 2.5 -12.7998 7.10059c-4.39941 7.09961 -2.2002 16.2998 4.7998 20.6992c4.7002 2.90039 7.60059 8.10059 7.60059 13.7002c0 5.90039 -3.2998 11.4004 -8.5 14.2002c-7.2998 3.90039 -10 13 -6.10059 20.2998c3.90039 7.2998 13 10 20.3008 6.10059
c14.8994 -8.10059 24.1992 -23.6006 24.1992 -40.6006c0 -16.0996 -8.09961 -30.7002 -21.7998 -39.2002zM138 181.3l-26 -19.2998h-18v-36h18l26 -19.4004v74.7002zM155.9 232c6.19922 0 12.0996 -4.7998 12.0996 -12v-152c0 -7.2002 -5.90039 -12 -12.0996 -12
c-3 0 -6 1.09961 -8.40039 3.5l-43.5 36.5h-28c-6.59961 0 -12 5.40039 -12 12v72c0 6.59961 5.40039 12 12 12h28l43.5 36.5c2.40039 2.40039 5.5 3.5 8.40039 3.5z" />
    <glyph glyph-name="file-video" unicode="&#xf1c8;" horiz-adv-x="384" 
d="M224 167.407v-10.4072l27.9707 27.9707c4.34473 4.34375 10.3477 7.0293 16.9707 7.0293h27.0586c13.2549 0 24 -10.7451 24 -24v-112c0 -13.2549 -10.7451 -24 -24 -24h-27.0586c-6.62305 0 -12.627 2.68457 -16.9707 7.0293l-27.9707 27.9707v-10.4072
c0 -13.583 -11.0107 -24.5928 -24.5928 -24.5928h-110.814c-13.582 0 -24.5928 11.0098 -24.5928 24.5918v110.815c0 13.583 11.0107 24.5928 24.5928 24.5928h110.814c13.582 0 24.5928 -11.0098 24.5928 -24.5928zM192 64v96h-96v-96h96zM272.255 160l-48.2549 -41.1738
v-13.6523l48.2549 -41.1738h15.7451v96h-15.7451zM369.941 350.059c8.68848 -8.68848 14.0586 -20.6943 14.0586 -33.9404v-332.118c0 -26.5098 -21.4902 -48 -48 -48h-288c-26.5098 0 -48 21.4902 -48 48v416c0 26.5098 21.4902 48 48 48h204.118
c13.2451 0 25.252 -5.37012 33.9395 -14.0586zM256 415.509v-95.5078h95.5088c-0.704102 2.85547 -2.17871 5.41699 -4.19434 7.43066l-83.8828 83.8828c-2.01367 2.01562 -4.57617 3.49023 -7.43164 4.19434zM352 -16v304h-104c-13.2549 0 -24 10.7451 -24 24v104h-176
c-8.83594 0 -16 -7.16309 -16 -16v-416c0 -8.83691 7.16406 -16 16 -16h288c8.83594 0 16 7.16309 16 16z" />
    <glyph glyph-name="file-code" unicode="&#xf1c9;" horiz-adv-x="384" 
d="M369.941 350.059c8.68848 -8.68848 14.0586 -20.6943 14.0586 -33.9404v-332.118c0 -26.5098 -21.4902 -48 -48 -48h-288c-26.5098 0 -48 21.4902 -48 48v416c0 26.5098 21.4902 48 48 48h204.118c13.2461 0 25.252 -5.37012 33.9404 -14.0586zM347.314 327.431
l-83.8838 83.8838c-2.01367 2.01562 -4.5752 3.49023 -7.43066 4.19434v-95.5088h95.5088c-0.705078 2.85547 -2.17871 5.41699 -4.19434 7.43066zM336 -32c8.83691 0 16 7.16309 16 16v304h-104c-13.2549 0 -24 10.7451 -24 24v104h-176c-8.83691 0 -16 -7.16309 -16 -16
v-416c0 -8.83691 7.16309 -16 16 -16h288zM174.529 35.4043l-25.9287 7.52637c-2.12305 0.617188 -3.67676 2.57812 -3.67676 4.89941c0 0.493164 0.0703125 0.96875 0.201172 1.4209l58.0273 199.869c0.616211 2.12305 2.57715 3.67773 4.89844 3.67773
c0.493164 0 0.969727 -0.0703125 1.4209 -0.202148l25.9277 -7.52637c2.12305 -0.617188 3.67676 -2.57812 3.67676 -4.89941c0 -0.493164 -0.0703125 -0.96875 -0.201172 -1.4209l-58.0264 -199.869c-0.616211 -2.12305 -2.57715 -3.67773 -4.89844 -3.67773
c-0.493164 0 -0.969727 0.0703125 -1.4209 0.202148zM126.083 83.0781c-0.930664 -0.993164 -2.25586 -1.6123 -3.72266 -1.6123c-1.34863 0 -2.5752 0.524414 -3.4873 1.37988l-61.2627 57.4346c-0.993164 0.930664 -1.61328 2.25293 -1.61328 3.71973
s0.620117 2.79004 1.61328 3.7207l61.2627 57.4346c0.912109 0.854492 2.13965 1.38086 3.48828 1.38086c1.4668 0 2.79004 -0.621094 3.7207 -1.61426l18.4922 -19.7236c0.855469 -0.912109 1.38184 -2.13965 1.38184 -3.4873
c0 -1.52539 -0.670898 -2.89453 -1.7334 -3.83008l-38.498 -33.8809l38.499 -33.8809c1.0625 -0.935547 1.73047 -2.30566 1.73047 -3.83008c0 -1.34863 -0.524414 -2.57422 -1.37891 -3.4873zM265.126 82.8457c-0.912109 -0.855469 -2.14062 -1.38086 -3.48828 -1.38086
c-1.4668 0 -2.79004 0.620117 -3.7207 1.61328l-18.4922 19.7236c-0.855469 0.912109 -1.38184 2.13965 -1.38184 3.4873c0 1.52539 0.670898 2.89453 1.7334 3.83008l38.499 33.8809l-38.499 33.8809c-1.0625 0.935547 -1.73047 2.30566 -1.73047 3.83008
c0 1.34863 0.524414 2.57422 1.37891 3.4873l18.4922 19.7236c0.930664 0.993164 2.25586 1.6123 3.72266 1.6123c1.34766 0 2.57422 -0.524414 3.48633 -1.37891l61.2617 -57.4346c0.993164 -0.930664 1.61328 -2.25293 1.61328 -3.71973
s-0.620117 -2.79004 -1.61328 -3.7207z" />
    <glyph glyph-name="circle-notch" unicode="&#xf1ce;" 
d="M288 423.897c0 7.49902 6.80664 13.1943 14.1758 11.8066c114.9 -21.6367 201.824 -122.518 201.824 -243.704c0 -136.789 -110.745 -247.711 -247.465 -247.999c-137.054 -0.289062 -247.812 109.615 -248.531 246.667
c-0.639648 121.757 86.4678 223.284 201.759 245.024c7.39258 1.39453 14.2373 -4.27539 14.2373 -11.7988v-8.14648c-0.00195312 -5.83105 -4.18359 -10.6953 -9.70312 -11.7695c-99.751 -19.4688 -174.297 -107.443 -174.297 -211.978c0 -119.945 97.3369 -216 216 -216
c119.945 0 216 97.3369 216 216c0 105.539 -75.3623 192.575 -174.302 211.96c-5.5166 1.07617 -9.69629 5.93848 -9.69824 11.7676v8.16992z" />
    <glyph glyph-name="heading" unicode="&#xf1dc;" 
d="M416 384v-384h56c4.41504 0 8 -3.58496 8 -8v-16c0 -4.41504 -3.58496 -8 -8 -8h-144c-4.41504 0 -8 3.58496 -8 8v16c0 4.41504 3.58496 8 8 8h56v176h-256v-176h56c4.41504 0 8 -3.58496 8 -8v-16c0 -4.41504 -3.58496 -8 -8 -8h-144c-4.41504 0 -8 3.58496 -8 8v16
c0 4.41504 3.58496 8 8 8h56v384h-56c-4.41504 0 -8 3.58496 -8 8v16c0 4.41504 3.58496 8 8 8h144c4.41504 0 8 -3.58496 8 -8v-16c0 -4.41504 -3.58496 -8 -8 -8h-56v-176h256v176h-56c-4.41504 0 -8 3.58496 -8 8v16c0 4.41504 3.58496 8 8 8h144
c4.41504 0 8 -3.58496 8 -8v-16c0 -4.41504 -3.58496 -8 -8 -8h-56z" />
    <glyph glyph-name="trash" unicode="&#xf1f8;" horiz-adv-x="448" 
d="M440 384c4.41504 0 8 -3.58496 8 -8v-16c0 -4.41504 -3.58496 -8 -8 -8h-18.9004l-33.1992 -372.3c-2.2002 -24.4561 -22.7773 -43.6963 -47.8008 -43.7002h-232.199c-25.0234 0.00390625 -45.6006 19.2441 -47.8008 43.7002l-33.1992 372.3h-18.9004
c-4.41504 0 -8 3.58496 -8 8v16c0 4.41504 3.58496 8 8 8h104l33.5996 44.7998c8.75977 11.6787 22.6924 19.2002 38.4004 19.2002h80c15.708 0 29.6406 -7.52148 38.4004 -19.2002l33.5996 -44.7998h104zM171.2 409.6l-19.2002 -25.5996h144l-19.2002 25.5996
c-2.92969 3.88184 -7.57031 6.38379 -12.7998 6.40039h-80c-5.22949 -0.0166016 -9.87012 -2.51855 -12.7998 -6.40039zM356 -17.4004l33 369.4h-330l33 -369.4c0.673828 -8.16113 7.52051 -14.5996 15.8555 -14.5996h0.0449219h232.199
c0.015625 0 0.0302734 0.0146484 0.0449219 0.0146484c8.33496 0 15.1816 6.42383 15.8555 14.585z" />
    <glyph glyph-name="copyright" unicode="&#xf1f9;" 
d="M256 440c136.967 0 248 -111.033 248 -248s-111.033 -248 -248 -248s-248 111.033 -248 248s111.033 248 248 248zM472 192c0 119.945 -97.3369 216 -216 216c-119.945 0 -216 -97.3369 -216 -216c0 -119.945 97.3369 -216 216 -216c119.945 0 216 97.3369 216 216z
M360.474 90.6338c-9.41406 -9.1416 -44.4551 -38.9658 -100.105 -38.9658c-77.8252 0 -136.513 60.5508 -136.513 140.846c0 77.9512 58.3447 137.597 135.431 137.597c53.5469 0 85.5078 -24.7852 94.0283 -32.3818c2.46973 -2.19141 4.02832 -5.38965 4.02832 -8.94824
c0 -2.63281 -0.864258 -5.07617 -2.30762 -7.05273l-8.7627 -12.0791c-4.03418 -5.56152 -11.8779 -6.5791 -17.2031 -2.3291c-8.9209 7.12207 -33.5098 23.6875 -69.0625 23.6875c-54.3203 0 -94.1611 -41.791 -94.1611 -98.1309
c0 -58.209 40.791 -102.104 94.8818 -102.104c39.5381 0 66.5225 22.0732 73.8516 28.8398c5.06836 4.68066 13.0537 4.10742 17.4229 -1.23926l9.41406 -11.5342c3.96875 -4.86133 3.56445 -11.8281 -0.942383 -16.2051z" />
    <glyph glyph-name="diamond" unicode="&#xf219;" horiz-adv-x="448" 
d="M253 434.6l185.7 -217.5c12.3994 -14.5996 12.3994 -35.6992 0 -50.1992l-185.601 -217.5c-15.2998 -17.9004 -42.7998 -17.9004 -58.0996 0l-185.7 217.5c-12.3994 14.5996 -12.3994 35.6992 0 50.1992l185.601 217.5c15.2998 17.9004 42.7998 17.9004 58.0996 0z
M414.4 187.7c2.09961 2.5 2.09961 6.09961 0 8.59961l-185.7 217.5c-2.5 2.90039 -6.90039 2.90039 -9.40039 0l-185.7 -217.5c-2.09961 -2.39941 -2.09961 -6.09961 0 -8.59961l185.7 -217.5c2.5 -2.90039 6.90039 -2.90039 9.40039 0z" />
    <glyph glyph-name="sticky-note" unicode="&#xf249;" horiz-adv-x="448" 
d="M448 99.8936c0 -13.2451 -5.37012 -25.252 -14.0586 -33.9404l-83.8828 -83.8818c-8.68848 -8.68848 -20.6943 -14.0596 -33.9404 -14.0596h-268.118c-26.5098 0 -48 21.4902 -48 48v351.988c0 26.5098 21.4902 48 48 48h352c26.5098 0 48 -21.4902 48 -48v-268.106z
M327.431 4.69824l83.8838 83.8828c2.01562 2.01367 3.49023 4.5752 4.19434 7.43066h-95.5088v-95.5088c2.85547 0.705078 5.41699 2.17969 7.43066 4.19531zM416 368c0 8.83691 -7.16309 16 -16 16h-352c-8.83691 0 -16 -7.16309 -16 -16v-351.988
c0 -8.83691 7.16309 -16 16 -16h240v104c0 13.2549 10.7451 24 24 24h104v239.988z" />
    <glyph glyph-name="calendar-plus" unicode="&#xf271;" horiz-adv-x="448" 
d="M320 116v-8c0 -6.59961 -5.40039 -12 -12 -12h-68v-68c0 -6.59961 -5.40039 -12 -12 -12h-8c-6.59961 0 -12 5.40039 -12 12v68h-68c-6.59961 0 -12 5.40039 -12 12v8c0 6.59961 5.40039 12 12 12h68v68c0 6.59961 5.40039 12 12 12h8c6.59961 0 12 -5.40039 12 -12v-68
h68c6.59961 0 12 -5.40039 12 -12zM448 336v-352c0 -26.5 -21.5 -48 -48 -48h-352c-26.5 0 -48 21.5 -48 48v352c0 26.5 21.5 48 48 48h48v52c0 6.59961 5.40039 12 12 12h8c6.59961 0 12 -5.40039 12 -12v-52h192v52c0 6.59961 5.40039 12 12 12h8
c6.59961 0 12 -5.40039 12 -12v-52h48c26.5 0 48 -21.5 48 -48zM32 336v-48h384v48c0 8.7998 -7.2002 16 -16 16h-352c-8.7998 0 -16 -7.2002 -16 -16zM416 -16v272h-384v-272c0 -8.7998 7.2002 -16 16 -16h352c8.7998 0 16 7.2002 16 16z" />
    <glyph glyph-name="calendar-minus" unicode="&#xf272;" horiz-adv-x="448" 
d="M400 384c26.5 0 48 -21.5 48 -48v-352c0 -26.5 -21.5 -48 -48 -48h-352c-26.5 0 -48 21.5 -48 48v352c0 26.5 21.5 48 48 48h48v52c0 6.59961 5.40039 12 12 12h8c6.59961 0 12 -5.40039 12 -12v-52h192v52c0 6.59961 5.40039 12 12 12h8c6.59961 0 12 -5.40039 12 -12
v-52h48zM48 352c-8.7998 0 -16 -7.2002 -16 -16v-48h384v48c0 8.7998 -7.2002 16 -16 16h-352zM400 -32c8.7998 0 16 7.2002 16 16v272h-384v-272c0 -8.7998 7.2002 -16 16 -16h352zM308 96h-168c-6.59961 0 -12 5.40039 -12 12v8c0 6.59961 5.40039 12 12 12h168
c6.59961 0 12 -5.40039 12 -12v-8c0 -6.59961 -5.40039 -12 -12 -12z" />
    <glyph glyph-name="calendar-times" unicode="&#xf273;" horiz-adv-x="448" 
d="M400 384c26.5 0 48 -21.5 48 -48v-352c0 -26.5 -21.5 -48 -48 -48h-352c-26.5 0 -48 21.5 -48 48v352c0 26.5 21.5 48 48 48h48v52c0 6.59961 5.40039 12 12 12h8c6.59961 0 12 -5.40039 12 -12v-52h192v52c0 6.59961 5.40039 12 12 12h8c6.59961 0 12 -5.40039 12 -12
v-52h48zM48 352c-8.7998 0 -16 -7.2002 -16 -16v-48h384v48c0 8.7998 -7.2002 16 -16 16h-352zM400 -32c8.7998 0 16 7.2002 16 16v272h-384v-272c0 -8.7998 7.2002 -16 16 -16h352zM294.7 63.9004c4.7002 -4.7002 4.7002 -12.3008 0 -17l-5.7002 -5.7002
c-4.7002 -4.7002 -12.2998 -4.7002 -17 0l-48 48.2002l-48.0996 -48.1006c-4.7002 -4.7002 -12.3008 -4.7002 -17 0l-5.7002 5.7002c-4.7002 4.7002 -4.7002 12.2998 0 17l48.0996 48.0996l-48.0996 48.1006c-4.7002 4.7002 -4.7002 12.2998 0 17l5.7002 5.7002
c4.69922 4.69922 12.2998 4.69922 17 0l48.0996 -48.1006l48.0996 48.1006c4.7002 4.69922 12.3008 4.69922 17 0l5.7002 -5.7002c4.7002 -4.7002 4.7002 -12.2998 0 -17l-48.2002 -48.2002z" />
    <glyph glyph-name="calendar-check" unicode="&#xf274;" horiz-adv-x="448" 
d="M400 384c26.5098 0 48 -21.4902 48 -48v-352c0 -26.5098 -21.4902 -48 -48 -48h-352c-26.5098 0 -48 21.4902 -48 48v352c0 26.5098 21.4902 48 48 48h48v52c0 6.62695 5.37305 12 12 12h8c6.62695 0 12 -5.37305 12 -12v-52h192v52c0 6.62695 5.37305 12 12 12h8
c6.62695 0 12 -5.37305 12 -12v-52h48zM48 352c-8.82227 0 -16 -7.17773 -16 -16v-48h384v48c0 8.82227 -7.17773 16 -16 16h-352zM400 -32c8.82227 0 16 7.17773 16 16v272h-384v-272c0 -8.82227 7.17773 -16 16 -16h352zM333.533 162.937l-134.791 -133.71
c-4.7002 -4.66211 -12.2881 -4.6416 -16.9629 0.046875l-67.3584 67.5518c-4.68262 4.69727 -4.67188 12.3008 0.0244141 16.9844l8.50488 8.48047c4.69727 4.68262 12.3008 4.67188 16.9834 -0.0244141l50.4424 -50.5869l117.782 116.837
c4.70898 4.6709 12.3125 4.6416 16.9844 -0.0673828l8.45801 -8.52734c4.67285 -4.70898 4.6416 -12.3125 -0.0673828 -16.9844z" />
    <glyph glyph-name="universal-access" unicode="&#xf29a;" 
d="M256 440c136.967 0 248 -111.033 248 -248s-111.033 -248 -248 -248s-248 111.033 -248 248s111.033 248 248 248zM256 -24c119.945 0 216 97.3369 216 216c0 119.945 -97.3369 216 -216 216c-119.945 0 -216 -97.3369 -216 -216c0 -119.945 97.3369 -216 216 -216z
M395.701 275.677c2.03027 -8.60059 -3.2959 -17.2178 -11.8965 -19.249c-31.0059 -7.32031 -59.9561 -13.7744 -88.6885 -17.1133c0.535156 -114.853 13.167 -139.988 27.2549 -176.036c4.01953 -10.2891 -1.06348 -21.8887 -11.3525 -25.9062
c-10.2959 -4.02246 -21.8896 1.06934 -25.9053 11.3516c-9.31934 23.8418 -18.5518 44.5654 -24.2715 87.2773h-9.68457c-5.72852 -42.7734 -14.9863 -63.5146 -24.2705 -87.2764c-4.02246 -10.2988 -15.6328 -15.3682 -25.9053 -11.3525
c-10.2891 4.01855 -15.3711 15.6172 -11.3535 25.9062c14.1035 36.083 26.7197 61.2344 27.2549 176.036c-28.7334 3.33887 -57.6826 9.79297 -88.6885 17.1133c-8.60059 2.03125 -13.9268 10.6484 -11.8955 19.249c2.03027 8.60059 10.6475 13.9258 19.249 11.8965
c105.222 -24.8457 135.48 -24.8936 240.904 0c8.59863 2.02148 17.2178 -3.29688 19.249 -11.8965zM217.806 318.194c0 21.0938 17.1006 38.1924 38.1943 38.1924s38.1943 -17.0996 38.1943 -38.1924c0 -21.0938 -17.1006 -38.1943 -38.1943 -38.1943
s-38.1943 17.0996 -38.1943 38.1943z" />
    <glyph glyph-name="audio-description" unicode="&#xf29e;" 
d="M464 384c26.5098 0 48 -21.4902 48 -48v-288c0 -26.5098 -21.4902 -48 -48 -48h-416c-26.5098 0 -48 21.4902 -48 48v288c0 26.5098 21.4902 48 48 48h416zM480 48v288c0 8.82227 -7.17773 16 -16 16h-416c-8.82227 0 -16 -7.17773 -16 -16v-288
c0 -8.82227 7.17773 -16 16 -16h416c8.82227 0 16 7.17773 16 16zM186.589 145.217h-67.335l-13.5078 -40.9736c-1.57715 -4.78613 -6.08496 -8.24316 -11.3965 -8.24316h-10.3398c-8.27539 0 -14.0664 8.17969 -11.3184 15.9863l59.1543 168
c1.64355 4.66797 6.0918 8.01465 11.3193 8.01465h19.5137c5.22754 0 9.67578 -3.34668 11.3193 -8.01465l59.1553 -168c2.74902 -7.80664 -3.04297 -15.9863 -11.3193 -15.9863h-10.3398c-5.17969 0 -9.77539 3.32422 -11.3975 8.24316zM152.787 254.738
c0 0 -4.32715 -18.9307 -8.11328 -29.7461l-17.0361 -51.3799h50.2979l-17.0361 51.3799c-3.51562 10.8164 -7.57129 29.7461 -7.57129 29.7461h-0.541016zM263.385 276c0 6.62695 5.37305 12 12 12h53.4434c59.2217 0 97.8926 -35.1553 97.8926 -95.7305
c0 -60.5732 -38.6699 -96.2695 -97.8926 -96.2695h-53.4434c-6.62695 0 -12 5.37305 -12 12v168zM326.934 126.017c38.9414 0 63.8193 22.9863 63.8193 66.2529c0 42.7275 -25.4189 65.7139 -63.8193 65.7139h-28.6641v-131.967h28.6641z" />
    <glyph glyph-name="sign-language" unicode="&#xf2a7;" horiz-adv-x="448" 
d="M447.971 192.609c0.56543 -17.4785 -7.24609 -34.3535 -20.8936 -45.1406l-52.5459 -41.5283v-95.2324c0 -25.5518 -17.458 -47.7217 -42.0264 -53.5889l-71.8496 -17.1592c-11.0029 -2.62695 -22.3154 -3.95996 -33.6201 -3.95996h-95.8926
c-30.2012 0 -53.29 26.9902 -49.0088 56.9639h-7.24609c-32.0264 0 -56.9521 30.4209 -48.3281 62.8691c-15.8818 8.45508 -26.9209 25.292 -26.5498 44.9463c0.364258 19.3223 11.5322 35.5771 27.0781 43.5498c-8.04883 31.1006 15.2061 62.3486 47.9336 62.3486h52.9199
l-8.41797 10.9736c-18.5752 24.2119 -11.1992 59.0205 14.5332 73.7725l-4.81543 6.27734c-19.6748 25.6465 -10.7607 63.7559 19.3643 76.8037c-7.33984 40.5039 33.4336 71.1768 69.4268 54.2891c8.91602 11.5811 23.0771 19.207 39.0068 19.2061
c15.4561 -0.000976562 29.7393 -7.06445 39.1855 -19.3789l55.9189 -72.8906c26.2588 41.8545 89.79 23.542 91.3604 -24.9619zM113.637 -14.4609c0.182617 -9.67188 8.03516 -17.5391 17.5049 -17.5381h95.8936c9.03418 0.00195312 17.7637 1.07422 26.1865 3.08496
l71.8506 17.1592c10.2783 2.45508 17.459 11.6943 17.459 22.4648v127.904c0 7.37891 -3.49805 14.3662 -9.35742 18.6904l-110.145 81.3057c-18.4688 13.6357 -39.6426 -14.8848 -20.5068 -29.0088l27.7549 -20.4854c6.20801 -4.58301 2.93359 -14.4375 -4.75098 -14.4375
h-150.505c-23.5293 0 -22.9258 -35.7861 0.503906 -35.7861h111.74c4.41602 0 8 -3.58398 8 -8v-5.17871c0 -4.41504 -3.58398 -8 -8 -8h-137.756c-23.5293 0 -22.9219 -35.7852 0.503906 -35.7852h137.252c4.41602 0 8 -3.58398 8 -8v-5.17871
c0 -4.41504 -3.58398 -8 -8 -8h-112.883c-23.5332 0 -22.9189 -35.7861 0.503906 -35.7861h112.379c4.41602 0 8 -3.58496 8 -8v-5.17773c0 -4.41504 -3.58398 -8 -8 -8h-55.6182c-4.83984 0 -9.4082 -1.94141 -12.8652 -5.46484
c-3.40918 -3.47266 -5.23633 -8.01172 -5.14551 -12.7822zM172.782 258.803c-14.4287 18.8086 -42.4258 -2.7041 -27.8701 -21.6738l30.0723 -39.2002h6.4209c-11.707 14.3584 -12.6162 35.5791 -1.04492 50.9961zM346.876 176.042
c11.4766 -8.47266 18.4443 -21.9854 18.7852 -36.3242l41.5742 32.8584c5.71973 4.52051 8.99121 11.623 8.75293 19l-4.46875 138.16c-0.750977 23.208 -35.7832 23.0283 -35 -1.18262l1.12695 -34.8125c0.00195312 -0.0869141 0.00683594 -0.175781 0.00683594 -0.263672
c0 -4.41504 -3.58496 -8.00098 -8.00098 -8.00098c-2.58594 0 -4.8877 1.23047 -6.35059 3.13672l-92.4668 120.531c-14.6094 19.0449 -41.6465 -3.71289 -27.251 -22.4805l68.6514 -89.4873c1.0332 -1.34766 1.6582 -3.03711 1.6582 -4.86621
c0 -2.54492 -1.19141 -4.81348 -3.0459 -6.2793l-4.02441 -3.18262c-1.36133 -1.07715 -3.07812 -1.72363 -4.94727 -1.72363c-0.338867 0 -0.672852 0.0205078 -1.00098 0.0615234c-2.17676 0.270508 -4.08789 1.41113 -5.36035 3.06934l-84.6338 110.321
c-14.5791 19.0068 -41.6621 -3.69336 -27.251 -22.4814l84.3232 -109.916c1.03418 -1.34766 1.6582 -3.03711 1.6582 -4.86621c0 -2.54492 -1.19141 -4.81348 -3.04492 -6.2793l-4.02539 -3.18262c-1.36133 -1.07715 -3.07812 -1.72363 -4.94727 -1.72363
c-0.338867 0 -0.672852 0.0205078 -1.00098 0.0625c-2.17676 0.269531 -4.08789 1.41016 -5.35938 3.06836l-69.3535 90.4014c-14.583 19.0117 -41.6602 -3.69727 -27.252 -22.4795l42.3438 -55.1943c12.9189 5.4873 28.126 3.94531 39.7607 -4.64062z" />
    <glyph glyph-name="envelope-open" unicode="&#xf2b6;" 
d="M349.32 395.74c34.5859 -27.4551 109.512 -87.8975 145.083 -117.009c10.7578 -8.80371 17.5967 -22.1729 17.5967 -37.1445v-257.587c0 -26.5098 -21.4902 -48 -48 -48h-416c-26.5098 0 -48 21.4902 -48 48v257.584c0 14.9697 6.83789 28.3369 17.5928 37.1406
c35.5723 29.1172 110.511 89.5605 145.098 117.016c21.8633 17.4912 56.6445 52.2598 93.3096 52.2598c36.9385 0 72.2783 -35.4951 93.3203 -52.2598zM464 -32c8.83691 0 16 7.16309 16 16v257.822l0.0107422 -0.000976562c0 4.99512 -2.29492 9.45801 -5.88672 12.3906
c-26.2783 21.46 -121.782 98.2607 -144.714 116.468c-17.6211 14.0508 -49.7246 45.3203 -73.4102 45.3203c-23.6826 0 -55.7891 -31.2695 -73.4102 -45.3203c-22.9316 -18.2061 -118.43 -94.9951 -144.712 -116.448c-3.72266 -3.03906 -5.87793 -7.58691 -5.87793 -12.3926
v-257.839c0 -8.83691 7.16309 -16 16 -16h416zM455.247 184.312c4.18848 -5.15527 3.39258 -12.7314 -1.77637 -16.9043c-22.8271 -18.4258 -55.1348 -44.2363 -104.155 -83.1484c-21.0459 -16.7998 -56.8711 -52.5176 -93.3184 -52.2578
c-36.5801 -0.263672 -72.8262 35.9082 -93.3184 52.2627c-49.0146 38.9082 -81.3203 64.7168 -104.148 83.1436c-5.16895 4.17285 -5.96582 11.749 -1.77637 16.9043l5.04688 6.21289c4.16895 5.13086 11.7041 5.9248 16.8486 1.77148
c22.7627 -18.376 55.0137 -44.1426 103.938 -82.9775c16.8496 -13.4375 50.2012 -45.6904 73.4131 -45.3154c23.2188 -0.371094 56.5615 31.877 73.4131 45.3154c48.9287 38.8389 81.1777 64.6045 103.938 82.9775c5.14551 4.15332 12.6797 3.35938 16.8486 -1.77148z" />
    <glyph glyph-name="watch" unicode="&#xf2e1;" horiz-adv-x="384" 
d="M320 335.1c39.2998 -35.1992 64 -86.1992 64 -143.1s-24.7002 -107.9 -64 -143.1v-88.9004c0 -13.2002 -10.7998 -24 -24 -24h-208c-13.2002 0 -24 10.7998 -24 24v88.9004c-39.2998 35.1992 -64 86.1992 -64 143.1s24.7002 107.9 64 143.1v88.9004
c0 13.2002 10.7998 24 24 24h208c13.2002 0 24 -10.7998 24 -24v-88.9004zM96 416v-57.7002c28.2002 16.4004 61 25.7002 96 25.7002s67.7998 -9.2998 96 -25.7002v57.7002h-192zM288 -32v57.7002c-28.2002 -16.2998 -61 -25.7002 -96 -25.7002
s-67.7998 9.40039 -96 25.7002v-57.7002h192zM192 32c88.4004 0 160 71.5996 160 160s-71.5996 160 -160 160c-88.5 0 -160 -71.7998 -160 -160s71.4004 -160 160 -160zM241 124.2l-60.0996 43.7002c-3.10059 2.2998 -4.90039 5.89941 -4.90039 9.69922v120.101
c0 6.59961 5.40039 12 12 12h8c6.59961 0 12 -5.40039 12 -12v-109.9l51.7998 -37.7002c5.40039 -3.89941 6.5 -11.3994 2.60059 -16.7998l-4.7002 -6.5c-3.7998 -5.2998 -11.2998 -6.5 -16.7002 -2.59961z" />
    <glyph glyph-name="utensil-fork" unicode="&#xf2e3;" 
d="M458.5 340.9c36.0996 0.5 68.2998 -44.2002 46.2998 -75.5c-6.09961 -8.80078 -55.5 -80.1006 -80.5996 -105.2c-41.5 -41.4004 -96.7998 -51.7998 -145.8 -32l-161.4 -179.2c-14.9004 -16.5 -41 -17.7002 -57.2002 -1.5l-48.2998 48.2998
c-16 16 -15.2998 42.1006 1.5 57.2002l179.4 161.5c-19.5 48.0996 -10.1006 103.7 32 145.8c25.0996 25 96.3994 74.6006 105.199 80.7002c31.5 22.2002 75.7002 -12.0996 75.3008 -46.5c26.2998 0.400391 54 -26.2002 53.5996 -53.5996zM478.7 283.9
c6.7002 9.19922 -14.9004 30.5996 -24 23.5996l-98.6006 -98.5996c-10 -8.5 -32.1992 13.2998 -24 23.5996l93.1006 105c6.5 9.09961 -14.7002 30.2998 -23.7998 23.7998l-105 -93.0996c-10.3008 -8.2002 -32.1006 14 -23.6006 24l98.6006 98.5996
c7 9 -14.4004 30.7002 -23.6006 24c0 0 -77.0996 -53.2998 -101 -77.2002c-38 -38 -41.8994 -89.0996 -14.7998 -130.399l-197.6 -178c-3.2002 -2.7998 -3.30078 -7.7002 -0.300781 -10.7002l48.3008 -48.2998c3 -3 7.89941 -2.90039 10.6992 0.299805l178 197.6
c41.2002 -27.0996 92.3008 -23.2998 130.4 14.8008c24 24 77.2002 101 77.2002 101z" />
    <glyph glyph-name="utensil-knife" unicode="&#xf2e4;" 
d="M72.9004 -50.4004l-48.3008 48.3008c-17.5996 17.5996 -18.3994 45.5996 -1.2998 62.6992l375 375c16.9004 16.9004 45.1006 16.4004 62.7002 -1.2998c20.7998 -20.5996 40 -60.7998 40 -122.3c0 -102.8 -67.5996 -225.8 -231.9 -205.2l-131 -155.8
c-16.5996 -19.7002 -46.6992 -19.9004 -65.1992 -1.40039zM421 413l-375 -375c-4.59961 -4.59961 -3.7002 -12.5 1.2998 -17.5l48.2998 -48.2998c5.40039 -5.40039 13.8008 -5.7002 18 -0.700195l142.5 169.5c82.8008 -12.7002 153.2 4 191.301 79.2998
c14.6992 29 21.6992 61.4004 21.6992 91.7002c0 48 -11.2998 80.4004 -30.5996 99.7002c-5.2002 5.2002 -13 5.7998 -17.5 1.2998z" />
    <glyph glyph-name="utensil-spoon" unicode="&#xf2e5;" 
d="M60.2998 -51.7998l-48.0996 48.0996c-16.7998 16.7002 -16.2002 44.2998 1.59961 60.2002l192.2 172.5c-22.2998 53.2002 -10.5996 111.8 35.2002 157.7c62.0996 62.0996 175.5 87.2998 236.1 26.7002c60.7002 -60.7002 35.2998 -174.2 -26.7002 -236.101
c-45.7998 -45.8994 -104.399 -57.7002 -157.6 -35.2998l-172.5 -192.2c-15.9004 -17.7002 -43.4004 -18.5 -60.2002 -1.59961zM263.8 364.1c-45.7002 -45.6992 -44.5 -92.5996 -18.3994 -142.699l-210.2 -188.7c-4.10059 -3.60059 -4.2002 -9.90039 -0.400391 -13.7998
l48.1006 -48.1006c3.89941 -3.89941 10.1992 -3.59961 13.7998 0.400391l188.7 210.3c49.5 -25.7998 96.6992 -27.7002 142.699 18.4004c49.3008 49.3994 74 143.699 26.7002 191c-45.3994 45.2998 -139 25.1992 -191 -26.8008z" />
    <glyph glyph-name="triangle" unicode="&#xf2ec;" horiz-adv-x="576" 
d="M329.6 424l240 -416c18.4004 -32 -4.69922 -72 -41.5996 -72h-479.9c-37 0 -60 40.0996 -41.5996 72l239.9 416c18.5 32 64.7998 32 83.1992 0zM528 -32c12.2998 0 20 13.4004 13.7998 24l-240 416c-6.09961 10.7002 -21.5996 10.5996 -27.7002 0l-240 -416
c-6.09961 -10.7002 1.60059 -24 13.9004 -24h480z" />
    <glyph glyph-name="trash-alt" unicode="&#xf2ed;" horiz-adv-x="448" 
d="M296 16c-4.41504 0 -8 3.58496 -8 8v272c0 4.41504 3.58496 8 8 8h16c4.41504 0 8 -3.58496 8 -8v-272c0 -4.41504 -3.58496 -8 -8 -8h-16zM136 16c-4.41504 0 -8 3.58496 -8 8v272c0 4.41504 3.58496 8 8 8h16c4.41504 0 8 -3.58496 8 -8v-272
c0 -4.41504 -3.58496 -8 -8 -8h-16zM440 384c4.41504 0 8 -3.58496 8 -8v-16c0 -4.41504 -3.58496 -8 -8 -8h-24v-368c0 -26.4922 -21.5078 -48 -48 -48h-288c-26.4922 0 -48 21.5078 -48 48v368h-24c-4.41504 0 -8 3.58496 -8 8v16c0 4.41504 3.58496 8 8 8h104
l33.5996 44.7998c8.75977 11.6787 22.6924 19.2002 38.4004 19.2002h80c15.708 0 29.6406 -7.52148 38.4004 -19.2002l33.5996 -44.7998h104zM171.2 409.6l-19.2002 -25.5996h144l-19.2002 25.5996c-2.92969 3.88184 -7.57031 6.38379 -12.7998 6.40039h-80
c-5.22949 -0.0166016 -9.87012 -2.51855 -12.7998 -6.40039zM384 -16v368h-320v-368c0 -8.83105 7.16895 -16 16 -16h288c8.83105 0 16 7.16895 16 16zM216 16c-4.41504 0 -8 3.58496 -8 8v272c0 4.41504 3.58496 8 8 8h16c4.41504 0 8 -3.58496 8 -8v-272
c0 -4.41504 -3.58496 -8 -8 -8h-16z" />
    <glyph glyph-name="stopwatch" unicode="&#xf2f2;" horiz-adv-x="448" 
d="M393.3 306.7c34.1006 -39.2998 54.7002 -90.6006 54.7002 -146.7c0 -123.7 -100.3 -224 -224 -224s-224 100.3 -224 224c0 118 91.2002 214.7 206.9 223.4v32.5996h-23c-6.60059 0 -12 5.40039 -12 12v8c0 6.59961 5.39941 12 12 12h80c6.59961 0 12 -5.40039 12 -12v-8
c0 -6.59961 -5.40039 -12 -12 -12h-25v-32.4004c50.1992 -3.2998 95.8994 -23.1992 131.699 -54.1992l17.5 17.5c4.7002 4.69922 12.3008 4.69922 17 0l5.7002 -5.7002c4.7002 -4.7002 4.7002 -12.2998 0 -17zM224 -32c106.1 0 192 85.9004 192 192s-85.9004 192 -192 192
s-192 -85.9004 -192 -192s85.9004 -192 192 -192zM228 96h-8c-6.59961 0 -12 5.40039 -12 12v168c0 6.59961 5.40039 12 12 12h8c6.59961 0 12 -5.40039 12 -12v-168c0 -6.59961 -5.40039 -12 -12 -12z" />
    <glyph glyph-name="spade" unicode="&#xf2f4;" 
d="M471.4 247.7c25.3994 -23.2002 40.5996 -56 40.5996 -91.7002c0 -68.4004 -55.5996 -124 -124 -124c-27.0996 0 -52 8 -76 32c0 -24 11.0996 -29.2998 30.0996 -53.4004c24 -30.0996 2.5 -74.5996 -36 -74.5996h-100.3c-38.3994 0 -59.8994 44.5 -36 74.5996
c20.5 25.8008 30.2002 29.4004 30.2002 53.4004c-24 -24 -40.5 -32 -76 -32c-68.4004 0 -124 55.5996 -124 124c0 35.5996 15.0996 68.5 40.5996 91.7002c15.3008 14 144.4 142.6 192.801 191c12.5 12.5 32.6992 12.5 45.1992 0
c48.4004 -48.4004 177.5 -177.101 192.801 -191zM385.5 64c51.7998 -0.5 94.9004 40.9004 94.5 92.7002c-0.200195 25.7002 -11.0996 50 -30.0996 67.2998c-19.2002 17.5 -193.9 192 -193.9 192s-174.7 -174.5 -193.8 -192
c-18.7002 -17.0996 -29.9004 -41.2002 -30.1006 -67.2002c-0.5 -51.7998 42.7002 -93.2998 94.5 -92.7998c41.2002 0.5 54.8008 11.5 87.1006 45.2002c3.7002 3.89941 10.2998 1.2002 10.2998 -4.2002v-25c0 -40.5996 0 -52.5996 -29.2002 -89.2998
c-7.2998 -9.2002 -0.700195 -22.7002 11 -22.7002h100.3c11.7002 0 18.3008 13.5 11 22.7002c-29.0996 36.7002 -29.0996 48.7002 -29.0996 89.2998v25c0 5.40039 6.59961 8.09961 10.2998 4.2002c32.6006 -33.9004 46.2002 -44.7998 87.2002 -45.2002z" />
    <glyph glyph-name="rectangle-landscape" unicode="&#xf2fa;" 
d="M464 384c26.5 0 48 -21.5 48 -48v-288c0 -26.5 -21.5 -48 -48 -48h-416c-26.5 0 -48 21.5 -48 48v288c0 26.5 21.5 48 48 48h416zM480 48v288c0 8.7998 -7.2002 16 -16 16h-416c-8.7998 0 -16 -7.2002 -16 -16v-288c0 -8.7998 7.2002 -16 16 -16h416
c8.7998 0 16 7.2002 16 16z" />
    <glyph glyph-name="rectangle-portrait" unicode="&#xf2fb;" horiz-adv-x="384" 
d="M384 -16c0 -26.5 -21.5 -48 -48 -48h-288c-26.5 0 -48 21.5 -48 48v416c0 26.5 21.5 48 48 48h288c26.5 0 48 -21.5 48 -48v-416zM48 -32h288c8.7998 0 16 7.2002 16 16v416c0 8.7998 -7.2002 16 -16 16h-288c-8.7998 0 -16 -7.2002 -16 -16v-416
c0 -8.7998 7.2002 -16 16 -16z" />
    <glyph glyph-name="rectangle-wide" unicode="&#xf2fc;" horiz-adv-x="640" 
d="M592 352c26.5 0 48 -21.5 48 -48v-224c0 -26.5 -21.5 -48 -48 -48h-544c-26.5 0 -48 21.5 -48 48v224c0 26.5 21.5 48 48 48h544zM608 80v224c0 8.7998 -7.2002 16 -16 16h-544c-8.7998 0 -16 -7.2002 -16 -16v-224c0 -8.7998 7.2002 -16 16 -16h544
c8.7998 0 16 7.2002 16 16z" />
    <glyph glyph-name="octagon" unicode="&#xf306;" 
d="M361.5 433.9l136.5 -136.5c9 -9 14.0996 -21.2002 14.0996 -33.9004v-143c0 -12.7002 -5.09961 -24.9004 -14.0996 -33.9004l-136.5 -136.5c-9 -9 -21.2002 -14.0996 -33.9004 -14.0996h-143.1c-12.7002 0 -24.9004 5.09961 -33.9004 14.0996l-136.5 136.5
c-9 9 -14.0996 21.2002 -14.0996 33.9004v143.1c0 12.7002 5.09961 24.9004 14.0996 33.9004l136.5 136.4c9 9 21.2002 14.0996 33.9004 14.0996h143.1c12.7002 0 24.9004 -5.09961 33.9004 -14.0996zM480 120.5v143c0 4.2998 -1.7002 8.2998 -4.7002 11.2998l-136.5 136.5
c-3 3 -7 4.7002 -11.2998 4.7002h-143.1c-4.30078 0 -8.30078 -1.7002 -11.3008 -4.7002l-136.399 -136.5c-3 -3 -4.7002 -7 -4.7002 -11.2998v-143.1c0 -4.30078 1.7002 -8.30078 4.7002 -11.3008l136.5 -136.399c3 -3 7 -4.7002 11.2998 -4.7002h143.1
c4.30078 0 8.30078 1.7002 11.3008 4.7002l136.399 136.5c3 3 4.7002 7 4.7002 11.2998z" />
    <glyph glyph-name="hexagon" unicode="&#xf312;" horiz-adv-x="576" 
d="M441.5 408.2l112 -192c8.7002 -15 8.7002 -33.5 0 -48.4004l-112 -192c-8.59961 -14.7002 -24.4004 -23.7998 -41.5 -23.7998h-224c-17.0996 0 -32.9004 9.09961 -41.5 23.7998l-112 192c-8.7002 15 -8.7002 33.5 0 48.4004l112 192
c8.59961 14.7002 24.4004 23.7998 41.5 23.7998h224c17.0996 0 32.9004 -9.09961 41.5 -23.7998zM525.8 183.9c2.90039 5 2.90039 11.1992 0 16.1992l-112 192c-2.7998 4.90039 -8.09961 7.90039 -13.7998 7.90039h-224c-5.7002 0 -11 -3 -13.7998 -8l-112 -192
c-2.90039 -4.90039 -2.90039 -11.0996 0 -16.0996l112 -192c2.7998 -4.90039 8.09961 -7.90039 13.7998 -7.90039h224c5.59961 0 10.9004 3 13.7998 7.90039z" />
    <glyph glyph-name="file-check" unicode="&#xf316;" horiz-adv-x="384" 
d="M369.941 350.059c8.68848 -8.68848 14.0586 -20.6943 14.0586 -33.9404v-332.118c0 -26.5098 -21.4902 -48 -48 -48h-288c-26.5098 0 -48 21.4902 -48 48v416c0 26.5098 21.4902 48 48 48h204.118c13.2461 0 25.252 -5.37012 33.9404 -14.0586zM347.314 327.431
l-83.8838 83.8838c-2.01367 2.01562 -4.5752 3.49023 -7.43066 4.19434v-95.5088h95.5088c-0.705078 2.85547 -2.17871 5.41699 -4.19434 7.43066zM336 -32c8.83691 0 16 7.16309 16 16v304h-104c-13.2549 0 -24 10.7451 -24 24v104h-176c-8.83691 0 -16 -7.16309 -16 -16
v-416c0 -8.83691 7.16309 -16 16 -16h288zM301.533 178.949l-134.791 -133.71c-4.7002 -4.66309 -12.2881 -4.64258 -16.9629 0.0458984l-67.3584 67.5518c-4.68262 4.69727 -4.67188 12.3008 0.0244141 16.9854l8.50488 8.47949
c4.69727 4.68359 12.3008 4.67188 16.9834 -0.0234375l50.4424 -50.5869l117.782 116.837c4.70898 4.6709 12.3125 4.64062 16.9844 -0.0683594l8.45801 -8.52734c4.67285 -4.70898 4.6416 -12.3125 -0.0673828 -16.9834z" />
    <glyph glyph-name="file-exclamation" unicode="&#xf31a;" horiz-adv-x="384" 
d="M369.9 350.1c9 -9 14.0996 -21.2998 14.0996 -34v-332.1c0 -26.5 -21.5 -48 -48 -48h-288c-26.5 0 -48 21.5 -48 48v416c0 26.5 21.5 48 48 48.0996h204.1c12.7002 0 24.9004 -5.09961 33.9004 -14.0996zM347.3 327.4l-83.8994 83.8994
c-2.10059 2.10059 -4.60059 3.5 -7.40039 4.2002v-95.5h95.5c-0.700195 2.7998 -2.09961 5.2998 -4.2002 7.40039zM336 -32c8.7998 0 16 7.2002 16 16v304h-104c-13.2998 0 -24 10.7002 -24 24v104h-176c-8.7998 0 -16 -7.2002 -16 -16v-416c0 -8.7998 7.2002 -16 16 -16
h288zM180.7 256h22.5996c6.90039 0 12.4004 -5.7998 12 -12.7002l-6.7002 -120c-0.399414 -6.39941 -5.59961 -11.2998 -12 -11.2998h-9.2998c-6.39941 0 -11.5996 5 -12 11.2998l-6.7002 120c-0.299805 6.90039 5.2002 12.7002 12.1006 12.7002zM220 64
c0 -15.5 -12.5 -28 -28 -28s-28 12.5 -28 28s12.5 28 28 28s28 -12.5 28 -28z" />
    <glyph glyph-name="file-edit" unicode="&#xf31c;" horiz-adv-x="384" 
d="M369.9 350.1c9 -9 14.0996 -21.2998 14.0996 -34v-332.1c0 -26.5 -21.5 -48 -48 -48h-288c-26.5 0 -48 21.5 -48 48v416c0 26.5 21.5 48 48 48.0996h204.1c12.7002 0 24.9004 -5.09961 33.9004 -14.0996zM347.3 327.4l-83.8994 83.8994
c-2.10059 2.10059 -4.60059 3.5 -7.40039 4.2002v-95.5h95.5c-0.700195 2.7998 -2.09961 5.2998 -4.2002 7.40039zM336 -32c8.7998 0 16 7.2002 16 16v304h-104c-13.2998 0 -24 10.7002 -24 24v104h-176c-8.7998 0 -16 -7.2002 -16 -16v-416c0 -8.7998 7.2002 -16 16 -16
h288zM219.2 200.8l29.5996 -29.5996c1.7998 -1.7998 1.7998 -4.60059 0 -6.40039l-112.399 -112.399l-30.1006 -4.30078c-5.89941 -0.799805 -11 4.2002 -10.2002 10.2002l4.30078 30.1006l112.399 112.399c1.7998 1.7998 4.60059 1.7998 6.40039 0zM283.6 199.6
l-16.3994 -16.3994c-1.7998 -1.7998 -4.60059 -1.7998 -6.40039 0l-29.5996 29.5996c-1.7998 1.7998 -1.7998 4.60059 0 6.40039l16.3994 16.3994c5.90039 5.90039 15.4004 5.90039 21.2002 0l14.7998 -14.7998c5.90039 -5.7998 5.90039 -15.2998 0 -21.2002z" />
    <glyph glyph-name="club" unicode="&#xf327;" 
d="M256 416c-64.7998 0 -109.2 -65.5 -85.5996 -125.6l16 -41c1.59961 -4.2002 -1.90039 -8.7002 -6.40039 -8.10059l-43.7002 5.7998c-55.2002 7.40039 -103.7 -35.5 -104.2 -90.2998c-0.5 -51.7002 42.7002 -93.2998 94.5 -92.7998
c41.2002 0.5 54.8008 11.5 87.1006 45.2002c3.7002 3.89941 10.2998 1.2002 10.2998 -4.2002v-25c0 -40.5996 0 -52.5996 -29.2002 -89.2002c-7.2998 -9.2002 -0.700195 -22.7002 11 -22.7002h100.3c11.7002 0 18.3008 13.5 11 22.7002
c-29.0996 36.7002 -29.0996 48.7002 -29.0996 89.2998v25c0 5.40039 6.59961 8.10059 10.2998 4.2002c32.6006 -33.8994 46.2002 -44.7998 87.2002 -45.2002c51.7002 -0.5 94.9004 41 94.5 92.7002c-0.400391 54.7998 -48.7998 97.7998 -104.2 90.5l-43.7002 -5.7998
c-4.5 -0.599609 -8.09961 3.7998 -6.39941 8.09961l16 41c23.3994 59.8008 -20.7998 125.4 -85.7002 125.4zM256 448c87.5 0 147.1 -88.4004 115.5 -169.1c74.7002 9.89941 140.5 -48.4004 140.5 -122.9c0 -68.4004 -55.5996 -124 -124 -124c-27.0996 0 -52 8 -76 32
c0 -24 11.0996 -29.2998 30.0996 -53.4004c24 -30.0996 2.5 -74.5996 -36 -74.5996h-100.3c-38.3994 0 -59.8994 44.5 -36 74.5996c20.5 25.8008 30.2002 29.4004 30.2002 53.4004c-24 -24 -40.5 -32 -76 -32c-68.4004 0 -124 55.5996 -124 124
c0 74.4004 65.5996 132.8 140.5 122.9c-31.5996 80.8994 28.0996 169.1 115.5 169.1z" />
    <glyph glyph-name="calendar-edit" unicode="&#xf333;" horiz-adv-x="448" 
d="M400 384c26.5 0 48 -21.5 48 -48v-352c0 -26.5 -21.5 -48 -48 -48h-352c-26.5 0 -48 21.5 -48 48v352c0 26.5 21.5 48 48 48h48v52c0 6.59961 5.40039 12 12 12h8c6.59961 0 12 -5.40039 12 -12v-52h192v52c0 6.59961 5.40039 12 12 12h8c6.59961 0 12 -5.40039 12 -12
v-52h48zM48 352c-8.7998 0 -16 -7.2002 -16 -16v-48h384v48c0 8.7998 -7.2002 16 -16 16h-352zM400 -32c8.7998 0 16 7.2002 16 16v272h-384v-272c0 -8.7998 7.2002 -16 16 -16h352zM255.7 178.3l34.5996 -34.5996c2.10059 -2.10059 2.10059 -5.40039 0 -7.40039
l-131.2 -131.2l-35.0996 -5c-6.90039 -1 -12.9004 4.90039 -11.9004 11.9004l5 35.0996l131.2 131.2c2 2 5.40039 2 7.40039 0zM330.9 176.9l-19.2002 -19.2002c-2.10059 -2.10059 -5.40039 -2.10059 -7.40039 0l-34.5996 34.5996
c-2.10059 2.10059 -2.10059 5.40039 0 7.40039l19.2002 19.2002c6.7998 6.7998 17.8994 6.7998 24.6992 0l17.3008 -17.3008c6.7998 -6.7998 6.7998 -17.8994 0 -24.6992z" />
    <glyph glyph-name="calendar-exclamation" unicode="&#xf334;" horiz-adv-x="448" 
d="M400 384c26.5 0 48 -21.5 48 -48v-352c0 -26.5 -21.5 -48 -48 -48h-352c-26.5 0 -48 21.5 -48 48v352c0 26.5 21.5 48 48 48h48v52c0 6.59961 5.40039 12 12 12h8c6.59961 0 12 -5.40039 12 -12v-52h192v52c0 6.59961 5.40039 12 12 12h8c6.59961 0 12 -5.40039 12 -12
v-52h48zM48 352c-8.7998 0 -16 -7.2002 -16 -16v-48h384v48c0 8.7998 -7.2002 16 -16 16h-352zM400 -32c8.7998 0 16 7.2002 16 16v272h-384v-272c0 -8.7998 7.2002 -16 16 -16h352zM212.7 224h22.5996c6.90039 0 12.4004 -5.7998 12 -12.7002l-6.7002 -120
c-0.399414 -6.39941 -5.59961 -11.2998 -12 -11.2998h-9.2998c-6.39941 0 -11.5996 5 -12 11.2998l-6.7002 120c-0.299805 6.90039 5.2002 12.7002 12.1006 12.7002zM252 32c0 -15.5 -12.5 -28 -28 -28s-28 12.5 -28 28s12.5 28 28 28s28 -12.5 28 -28z" />
    <glyph glyph-name="badge" unicode="&#xf335;" 
d="M256 -64c-35.5 0 -68.0996 19.4004 -85.5 49.5996c-32.0996 -8.69922 -69 -1.09961 -95.5 25.4004c-25.0996 25.0996 -34.5 61.9004 -25.4004 95.5c-30.1992 17.2998 -49.5996 50 -49.5996 85.5s19.4004 68.2002 49.5996 85.5
c-9.09961 33.5996 0.300781 70.4004 25.4004 95.5s61.9004 34.5 95.5 25.4004c17.2998 30.1992 50 49.5996 85.5 49.5996s68.2002 -19.4004 85.5 -49.5996c33.5996 9.09961 70.4004 -0.300781 95.5 -25.4004s34.5 -61.9004 25.4004 -95.5
c30.1992 -17.2998 49.5996 -50 49.5996 -85.5s-19.4004 -68.2002 -49.5996 -85.5c9.09961 -33.5996 -0.300781 -70.4004 -25.4004 -95.5c-26.0996 -26.0996 -62.7998 -34.2998 -95.5 -25.4004c-17.4004 -30.1992 -50 -49.5996 -85.5 -49.5996zM187.7 27.0996
c3.59961 -9.59961 16.2002 -59.0996 68.2998 -59.0996c51 0 63.7002 47 68.2998 59.0996c32.6006 -14.7998 61.2002 -22.3994 90.1006 6.5c36 36 11.7998 78.3008 6.5 90.1006c9.59961 3.59961 59.0996 16.2002 59.0996 68.2998c0 51 -47 63.7002 -59.0996 68.2998
c4.39941 9.60059 30.2998 53.4004 -6.5 90.1006c-36 36 -78.3008 11.7998 -90.1006 6.5c-3.59961 9.59961 -16.2002 59.0996 -68.2998 59.0996c-51 0 -63.7002 -47 -68.2998 -59.0996c-9.2998 4.19922 -53.2998 30.3994 -90.1006 -6.5
c-36 -36 -11.7998 -78.3008 -6.5 -90.1006c-9.59961 -3.59961 -59.0996 -16.2002 -59.0996 -68.2998c0 -51 47 -63.7002 59.0996 -68.2998c-4.39941 -9.60059 -30.2998 -53.4004 6.5 -90.1006c28.8008 -28.6992 57.5 -21.2998 90.1006 -6.5z" />
    <glyph glyph-name="spinner-third" unicode="&#xf3f4;" 
d="M460.115 74.1543l-6.94141 4.00781c-5.5459 3.20215 -7.56348 10.1768 -4.66113 15.8857c32.9717 64.8379 31.167 142.731 -5.41504 205.954c-36.5039 63.3564 -103.117 103.876 -175.8 107.701c-6.3457 0.333984 -11.2979 5.62109 -11.2979 11.9756v8.0127
c0 6.90332 5.80762 12.3369 12.7031 11.9814c83.5518 -4.30566 160.157 -50.8613 202.105 -123.67c42.0693 -72.7031 44.083 -162.322 6.03418 -236.838c-3.13965 -6.14941 -10.75 -8.46191 -16.7275 -5.01074z" />
    <glyph glyph-name="ticket-alt" unicode="&#xf3ff;" horiz-adv-x="576" 
d="M424 288c13.2549 0 24 -10.7451 24 -24v-144c0 -13.2549 -10.7451 -24 -24 -24h-272c-13.2549 0 -24 10.7451 -24 24v144c0 13.2549 10.7451 24 24 24h272zM416 128v128h-256v-128h256zM544 224c-17.6729 0 -32 -14.3271 -32 -32s14.3271 -32 32 -32h32v-112
c0 -26.5098 -21.4902 -48 -48 -48h-480c-26.5098 0 -48 21.4902 -48 48v112h32c17.6729 0 32 14.3271 32 32s-14.3271 32 -32 32h-32v112c0 26.5098 21.4902 48 48 48h480c26.5098 0 48 -21.4902 48 -48v-112h-32zM544 128c-35.29 0 -64 28.71 -64 64s28.71 64 64 64v80
c0 8.82324 -7.17676 16 -16 16h-480c-8.82324 0 -16 -7.17676 -16 -16v-80c35.29 0 64 -28.71 64 -64s-28.71 -64 -64 -64v-80c0 -8.82324 7.17676 -16 16 -16h480c8.82324 0 16 7.17676 16 16v80z" />
    <glyph glyph-name="square-full" unicode="&#xf45c;" 
d="M480 416h-448v-448h448v448zM512 448v-512h-512v512h512z" />
    <glyph glyph-name="whistle" unicode="&#xf460;" horiz-adv-x="640" 
d="M210 258.6c35.7002 0 64.5996 -28.8994 64.5996 -64.5996s-28.8994 -64.5996 -64.5996 -64.5996s-64.5996 28.8994 -64.5996 64.5996s28.8994 64.5996 64.5996 64.5996zM210 161.7c17.7998 0 32.2998 14.5 32.2998 32.2998s-14.5 32.2998 -32.2998 32.2998
s-32.2998 -14.5 -32.2998 -32.2998s14.5 -32.2998 32.2998 -32.2998zM464.2 245.4c5.7998 3.5 13.0996 3 18.2998 -1.2002l151.5 -121.2c6.7998 -5.40039 8 -15.2998 2.7998 -22.2998l-79 -105.3c-4.89941 -6.5 -13.7998 -8.30078 -20.8994 -4.30078l-151.9 86.8008
c-7.59961 -11.5 -16.4004 -22.3008 -26.5 -32.4004c-41 -41 -94.7002 -61.5 -148.5 -61.5s-107.5 20.5 -148.5 61.5c-66.0996 66.0996 -78.7998 165.3 -38.2998 244.3c-14.5 12.1006 -23.2002 30.1006 -23.2002 49.6006c0 35.5996 29 64.5996 64.5996 64.5996
c19.2002 0 36.9004 -8.7998 49.2002 -23.4004c30.1006 15.5 63.1006 23.3008 96.1006 23.3008c86.6992 0 126.5 -42.9004 194.5 -97.3008c5.2998 -4.2998 7.39941 -11.3994 5.19922 -17.8994l-10.2998 -29.7998c-1.09961 -3.2002 -0.0996094 -6.80078 2.60059 -8.90039
l25.3994 -20.4004c2.7002 -2.09961 6.2998 -2.2998 9.2002 -0.599609zM32.2998 339.4c0 -8.2002 3.2998 -15.6006 8.5 -21.4004c6.2998 8.5 13 16.7998 20.7002 24.5c7.7002 7.7998 16.0996 14.5996 24.7002 20.9004c-5.7998 5.2998 -13.5 8.2998 -21.6006 8.2998
c-17.7998 0 -32.2998 -14.5 -32.2998 -32.2998zM544.8 31.9004l52.1006 69.1992c2.59961 3.5 2 8.5 -1.40039 11.2002l-124.4 99.5l-32.5 -19.2002c-5.7998 -3.39941 -13.0996 -2.89941 -18.2998 1.30078l-51.8994 41.5c-5.30078 4.2998 -7.40039 11.3994 -5.2002 17.8994
l12.0996 35.2002s-61.2998 48.9004 -70.5 55.5996c-37.0996 23.5 -138.2 57.8008 -220.5 -24.5c-111.899 -111.899 -31.5996 -303.899 126.4 -303.3c107.1 0.400391 150.899 84.7002 164.1 104.601l159.5 -91.2002c3.60059 -2 8.10059 -1.10059 10.5 2.2002z" />
    <glyph glyph-name="band-aid" unicode="&#xf462;" horiz-adv-x="640" 
d="M560 352c44.0996 0 80 -35.9004 80 -80v-160c0 -44.0996 -35.9004 -80 -80 -80h-480c-44.0996 0 -80 35.9004 -80 80v160c0 44.0996 35.9004 80 80 80h480zM160 64v256h-80c-26.5 0 -48 -21.5 -48 -48v-160c0 -26.5 21.5 -48 48 -48h80zM448 64v256h-256v-256h256z
M608 112v160c0 26.5 -21.5 48 -48 48h-80v-256h80c26.5 0 48 21.5 48 48zM272 220c-11 0 -20 9 -20 20s9 20 20 20s20 -9 20 -20s-9 -20 -20 -20zM368 220c-11 0 -20 9 -20 20s9 20 20 20s20 -9 20 -20s-9 -20 -20 -20zM272 124c-11 0 -20 9 -20 20s9 20 20 20s20 -9 20 -20
s-9 -20 -20 -20zM368 124c-11 0 -20 9 -20 20s9 20 20 20s20 -9 20 -20s-9 -20 -20 -20z" />
    <glyph glyph-name="file-medical" unicode="&#xf477;" horiz-adv-x="384" 
d="M224 216v-56h56c4.40039 0 8 -3.59961 8 -8v-48c0 -4.40039 -3.59961 -8 -8 -8h-56v-56c0 -4.40039 -3.59961 -8 -8 -8h-48c-4.40039 0 -8 3.59961 -8 8v56h-56c-4.40039 0 -8 3.59961 -8 8v48c0 4.40039 3.59961 8 8 8h56v56c0 4.40039 3.59961 8 8 8h48
c4.40039 0 8 -3.59961 8 -8zM369.9 350c9 -9 14.0996 -21.2998 14.0996 -34v-332c0 -26.5 -21.5 -48 -48 -48h-288c-26.5 0 -48 21.5 -48 48v415.9c0 26.5 21.5 48 48 48.0996h204.1c12.7002 0 24.9004 -5.09961 33.9004 -14.0996zM256 415.4v-95.5h95.5
c-0.700195 2.7998 -2.09961 5.2998 -4.2002 7.39941l-83.8994 83.9004c-2.10059 2.09961 -4.60059 3.5 -7.40039 4.2002zM352 -16v304h-104c-13.2998 0 -24 10.5996 -24 23.9004v104.1h-176c-8.7998 0 -16 -7.2998 -16 -16.0996v-415.9c0 -8.7998 7.2002 -16 16 -16h288
c8.7998 0 16 7.2002 16 16z" />
    <glyph glyph-name="file-medical-alt" unicode="&#xf478;" horiz-adv-x="448" 
d="M433.9 350c9 -9 14.0996 -21.2998 14.0996 -34v-332c0 -26.5 -21.5 -48 -48 -48h-287.9c-26.5 0 -48 21.5 -48 48v112h31.9004v-112c0 -8.7998 7.2998 -16 16.0996 -16h288c8.80078 0 16 7.2002 16 16v304h-104c-13.2998 0 -24 10.5996 -24 23.9004v104.1h-176
c-8.7998 0 -16.0996 -7.2998 -16.0996 -16.0996v-239.9h52.9004c3.09961 0 5.7998 -1.7002 7.19922 -4.40039l19.9004 -39.7998l56.9004 113.7c2.89941 5.90039 11.3994 5.90039 14.2998 0l34.7002 -69.5h70.0996c8.7998 0 16 -7.2002 16 -16s-7.2002 -16 -16 -16h-89.9004
l-22.0996 44.2002l-56.9004 -113.7c-2.89941 -5.90039 -11.3994 -5.90039 -14.2998 0l-34.7002 69.5h-126.1c-4.40039 0 -8 3.59961 -8 8v16c0 4.40039 3.59961 8 8 8h56.0996v239.9c0 26.5 21.5 48 48 48.0996h204c12.7002 0 24.9004 -5.09961 33.9004 -14.0996zM320 319.9
h95.5c-0.700195 2.7998 -2.09961 5.2998 -4.2002 7.39941l-83.8994 83.9004c-2.10059 2.09961 -4.60059 3.5 -7.40039 4.2002v-95.5z" />
    <glyph glyph-name="x-ray" unicode="&#xf497;" horiz-adv-x="640" 
d="M168 224c-4.40039 0 -8 3.59961 -8 8v16c0 4.40039 3.59961 8 8 8h136v32h-104c-4.40039 0 -8 3.59961 -8 8v16c0 4.40039 3.59961 8 8 8h104v24c0 4.40039 3.59961 8 8 8h16c4.40039 0 8 -3.59961 8 -8v-24h104c4.40039 0 8 -3.59961 8 -8v-16
c0 -4.40039 -3.59961 -8 -8 -8h-104v-32h136c4.40039 0 8 -3.59961 8 -8v-16c0 -4.40039 -3.59961 -8 -8 -8h-136v-32h104c4.40039 0 8 -3.59961 8 -8v-16c0 -4.40039 -3.59961 -8 -8 -8h-104v-32h64c26.5 0 48 -21.5 48 -48s-21.5 -48 -48 -48s-48 21.5 -48 48v16h-64v-16
c0 -26.5 -21.5 -48 -48 -48s-48 21.5 -48 48s21.5 48 48 48h64v32h-104c-4.40039 0 -8 3.59961 -8 8v16c0 4.40039 3.59961 8 8 8h104v32h-136zM240 64c8.7998 0 16 7.2002 16 16s-7.2002 16 -16 16s-16 -7.2002 -16 -16s7.2002 -16 16 -16zM400 96
c-8.7998 0 -16 -7.2002 -16 -16s7.2002 -16 16 -16s16 7.2002 16 16s-7.2002 16 -16 16zM632 416h-56v-448h56c4.40039 0 8 -3.59961 8 -8v-16c0 -4.40039 -3.59961 -8 -8 -8h-624c-4.40039 0 -8 3.59961 -8 8v16c0 4.40039 3.59961 8 8 8h56v448h-56
c-4.40039 0 -8 3.59961 -8 8v16c0 4.40039 3.59961 8 8 8h624c4.40039 0 8 -3.59961 8 -8v-16c0 -4.40039 -3.59961 -8 -8 -8zM544 -32v448h-448v-448h448z" />
    <glyph glyph-name="dove" unicode="&#xf4ba;" 
d="M368 287.9c0 8.89941 7.2002 16 16 16s16 -7.2002 16 -16c0 -8.80078 -7.2002 -16 -16 -16s-16 7.19922 -16 16zM384 384h128l-32 -96v-128.1c0 -88.4004 -71.5996 -160.101 -160 -160.101h-53.0996l-63.9004 -54.7998c-2.5 -2.2002 -11.7998 -9.59961 -25.2002 -9
c-105.899 4.40039 -154.899 56.2998 -174.8 87c-6.90039 10.7002 -1.5 24.7998 10.7998 27.9004l128.8 32.1992c-100.8 81.6006 -111.199 168.9 -110.6 211.801c0.5 40.0996 9.7998 78 25.7998 112c5.7998 12.3994 23.6006 11.8994 29.1006 -0.700195
c14.3994 -32.7002 35.0996 -61.6006 60.3994 -86c5.7002 33.7998 23.4004 80.5996 58.7002 122.3c9 10.5996 25.7998 4.90039 27.9004 -8.2998c7.09961 -47 26.7998 -90.7002 56 -127.3c8.7998 44 47.5996 77.0996 94.0996 77.0996zM209.9 393.7
c-13.8008 -22.1006 -30 -56.1006 -33.2002 -97.9004c32.5 -23.5 70.2002 -40.3994 111.3 -47.7998v12.7002c-36.9004 37 -64 82.7002 -78.0996 133zM448 293.3l19.5996 58.7002h-83.5996c-35.2998 0 -64 -28.7002 -64 -64.0996v-78.1006
c-20 2.2998 -163.6 12 -245.7 151.101c-6.59961 -21.5 -10 -43.7002 -10.2998 -66.4004c-1.59961 -122.9 100.9 -188.3 148.5 -227l-170.8 -42.7002c21.5996 -24.5 62.7998 -53.7998 137.399 -56.8994c0.800781 0 76 63.7998 76 63.7998h64.9004
c70.5996 0 128 57.5 128 128.1v133.5z" />
    <glyph glyph-name="piggy-bank" unicode="&#xf4d3;" horiz-adv-x="576" 
d="M432 192c8.7998 0 16 -7.2002 16 -16s-7.2002 -16 -16 -16s-16 7.2002 -16 16s7.2002 16 16 16zM560 224c8.7998 0 16 -7.2002 16 -16v-128c0 -8.7998 -7.2002 -16 -16 -16h-48.7002c-8.89941 -11.7998 -19.5996 -22.0996 -31.2998 -31.0996v-80.9004
c0 -8.7998 -7.2002 -16 -16 -16h-112c-8.7998 0 -16 7.2002 -16 16v48h-64v-48c0 -8.7998 -7.2002 -16 -16 -16h-112c-8.7998 0 -16 7.2002 -16 16v80.7002c-38.5996 29.2002 -64 75.0996 -64 127.3h-8c-33.2998 0 -59.9004 29.2002 -55.5 63.4004
c3.59961 28.1992 29 48.5996 57.5 48.5996c3.2998 0 6 -2.7002 6 -6v-20c0 -3.2998 -2.7002 -6 -6 -6h-1c-11.5996 0 -22.2998 -7.7998 -24.5 -19.2002c-3 -15.2998 8.7002 -28.7998 23.5 -28.7998h11.2002c10.7998 53 47.7998 96.2998 96.7998 116.1
c-2.40039 9 -4 18.2002 -4 27.9004c0 61.9004 50.0996 112 112 112s112 -50.0996 112 -112c0 -3.5 -0.5 -6.7998 -0.900391 -10.2002c23.1006 16.1006 50.6006 26.2002 80.9004 26.2002h16v-64.5996c21.7998 -16.5 39.4004 -38.1006 50.5 -63.4004h29.5zM272 416
c-44.2002 0 -80 -35.7998 -80 -80c0 -6.59961 0.900391 -12.9004 2.5 -19c9.59961 1.7998 19.4004 3 29.5 3h126.4c1 5.2002 1.59961 10.5 1.59961 16c0 44.2002 -35.7998 80 -80 80zM544 96v96h-34.4004c-17.5996 40.2002 -21.8994 49.4004 -61.5996 79.5v47.2998
c-29.0996 -4.2998 -45.4004 -17.2998 -62.2998 -30.7998h-161.7c-70.5996 0 -128 -57.4004 -128 -128c0 -17.7998 -0.900391 -62.2998 64 -111.3v-80.7002h80v64h128v-64h80v80.7002c30.2998 23.2002 30.2998 24.8994 47.2998 47.2998h48.7002z" />
    <glyph glyph-name="skull" unicode="&#xf54c;" 
d="M352 264c39.7998 0 72 -32.2002 72 -72s-32.2002 -72 -72 -72s-72 32.2002 -72 72s32.2002 72 72 72zM352 152c22.0996 0 40 17.9004 40 40s-17.9004 40 -40 40s-40 -17.9004 -40 -40s17.9004 -40 40 -40zM160 264c39.7998 0 72 -32.2002 72 -72s-32.2002 -72 -72 -72
s-72 32.2002 -72 72s32.2002 72 72 72zM160 152c22.0996 0 40 17.9004 40 40s-17.9004 40 -40 40s-40 -17.9004 -40 -40s17.9004 -40 40 -40zM256 448c141.4 0 256 -100.3 256 -224c0 -70.0996 -36.9004 -132.6 -94.5 -173.7
c-9.7002 -6.89941 -15.2002 -18.2002 -13.5 -29.8994l7.09961 -21.3008c10.3008 -31.0996 -12.8994 -63.0996 -45.5996 -63.0996h-219c-32.7002 0 -55.9004 32 -45.5996 63.0996l7.09961 21.3008c1.7002 11.7998 -3.7998 23 -13.5 29.8994
c-57.5996 41.1006 -94.5 103.601 -94.5 173.7c0 123.7 114.6 224 256 224zM398.9 76.4004c51.5996 36.6992 81.0996 90.5 81.0996 147.6c0 105.9 -100.5 192 -224 192s-224 -86.0996 -224 -192c0 -57.0996 29.5 -110.9 81.0996 -147.6
c19.7002 -14 29.9004 -37.2002 26.6006 -60.4004l-0.400391 -2.7998l-0.899414 -2.7998l-7.10059 -21.3008c-2.2998 -6.69922 0.400391 -11.8994 2.2002 -14.3994c1.7998 -2.40039 5.90039 -6.60059 13 -6.60059h45.5v56c0 4.40039 3.59961 8 8 8h16
c4.40039 0 8 -3.59961 8 -8v-56h64v56c0 4.40039 3.59961 8 8 8h16c4.40039 0 8 -3.59961 8 -8v-56h45.5c7.2002 0 11.2002 4.10059 13 6.60059s4.40039 7.59961 2.2002 14.3994l-7.10059 21.3008l-0.899414 2.7998l-0.400391 2.7998
c-3.2998 23.2002 6.90039 46.4004 26.6006 60.4004z" />
    <glyph glyph-name="tshirt" unicode="&#xf553;" horiz-adv-x="608" 
d="M606.4 336.4c2.59961 -7.80078 2 -16.1006 -1.5 -23.4004l-51.5 -104.1c-3.60059 -7.30078 -9.80078 -12.8008 -17.5 -15.4004c-7.80078 -2.7002 -16.1006 -2.09961 -23.3008 1.59961l-48.5 24v-237.699c0 -25 -20.0996 -45.3008 -44.7998 -45.3008h-230.399
c-24.7002 0 -44.8008 20.3008 -44.8008 45.3008v237.8l-48.5996 -24c-7.2002 -3.60059 -15.5 -4.2998 -23.2002 -1.60059c-7.7002 2.5 -13.8994 8 -17.5 15.4004l-51.5 104c-3.7002 7.2998 -4.2998 15.5996 -1.7002 23.4004c2.5 7.7998 7.90039 14.0996 15.2002 17.7998
l187.4 93.7998l7.89941 -11.0996c15.7002 -22 51.8008 -36.2002 91.9004 -36.2002s76.2002 14.2002 91.9004 36.2002l7.89941 11.0996l187.4 -93.7998c7.2002 -3.7002 12.5996 -10 15.2002 -17.7998zM526.7 224.1l48.7998 101.9l-162.5 81.4004
c-24 -24.3008 -64.2002 -39 -108.9 -39c-44.6992 0 -84.8994 14.6992 -108.899 39l-164.101 -82.2002l52.3008 -101.9l92.5996 47.6006v-289.7c0 -7.10059 5.7002 -12.9004 12.7998 -12.9004h230.4c7.09961 0 12.7998 5.7998 12.7998 12.9004v289.7z" />
    <glyph glyph-name="award" unicode="&#xf559;" horiz-adv-x="384" 
d="M192 352.05c52.9404 0 96 -43.0693 96 -96c0 -52.9297 -43.0703 -96 -96 -96s-96 43.0703 -96 96c0 52.9307 43.0703 96 96 96zM192 192.05c35.29 0 64 28.71 64 64s-28.71 64 -64 64s-64 -28.71 -64 -64s28.71 -64 64 -64zM367.63 175.67
c-17.5303 -17.75 -15.5498 -14.5801 -21.9102 -38.6396c-2.00977 -7.62988 -5.91016 -14.3506 -10.6201 -20.3701l47.7002 -117.37c4.31055 -10.5703 -3.50977 -22.04 -14.79 -22.04c-0.549805 0 2.91016 -0.120117 -53.3193 2.03027l-36.25 -38.2803
c-3.2207 -3.40039 -7.4209 -5 -11.5801 -5c-6.16992 0 -12.2402 3.53027 -14.8604 9.95996l-52.4404 129.04c-2.36426 0.806641 -4.90918 1.24512 -7.54492 1.24512c-2.64746 0 -5.19238 -0.441406 -7.56445 -1.25488l-52.4502 -129.03
c-2.62988 -6.42969 -8.69043 -9.95996 -14.8604 -9.95996c-4.15918 0 -8.35938 1.59961 -11.5801 5l-36.25 38.29c-56.2295 -2.15039 -52.7695 -2.03027 -53.3193 -2.03027c-11.2803 0 -19.1006 11.4707 -14.79 22.04l47.71 117.38
c-4.70996 6.02051 -8.61035 12.7402 -10.6201 20.3799c-6.33984 23.9004 -4.33008 20.8701 -21.9102 38.5908c-14.0596 14.3301 -19.5996 35.3398 -14.4697 54.8594c6.38965 24.2705 6.38965 20.5205 0 44.6904c-5.12988 19.5303 0.399414 40.5498 14.46 54.8701
c17.5303 17.75 15.5498 14.5801 21.9102 38.6201c5.16016 19.6094 20.3799 35.0596 39.75 40.3193c23.5098 6.41992 20.4199 4.52051 37.7197 22.1904c14.2197 14.4502 35.25 20.1602 54.5 14.8496c23.3701 -6.41016 19.9697 -6.50977 43.4697 0
c19.4102 5.25977 40.3105 -0.399414 54.5303 -14.8193c17.1299 -17.6406 14.4502 -15.9004 37.75 -22.2207c19.3496 -5.25977 34.5703 -20.71 39.7197 -40.3398c6.33984 -23.9004 4.33008 -20.8701 21.9102 -38.5898c14.0605 -14.3301 19.6006 -35.3398 14.4697 -54.8604
c-6.38965 -24.2393 -6.38965 -20.4893 0 -44.6895c5.12012 -19.5303 -0.40918 -40.5498 -14.4697 -54.8604zM111.72 -18.9502l33.8398 83.2402c-13.1699 0.929688 -26.0195 6.36035 -35.96 16.5c-11.1299 11.3096 -9.71973 10.0498 -31.5898 15.9102
c-0.80957 0.219727 -1.49023 0.709961 -2.2793 0.969727l-35.5508 -87.4795c32.96 1.26953 24.1104 0.929688 42.4102 1.62988c12.5703 -13.2803 6.54004 -6.91016 29.1299 -30.7705zM343.83 10.2002l-35.5498 87.4697
c-0.790039 -0.25 -1.4707 -0.740234 -2.28027 -0.959961c-21.7598 -5.71973 -20.1797 -4.2998 -31.5898 -15.9102c-9.95996 -10.1396 -22.8105 -15.4395 -36.0205 -16.3496l33.9004 -83.4004c22.5898 23.8604 16.5703 17.5 29.1299 30.7705
c18.2803 -0.700195 9.5 -0.360352 42.4102 -1.62012zM314.78 145.19c8.08984 30.8496 7.62012 30.1992 30.0293 52.9092c6.18066 6.30078 8.62012 15.6104 6.34082 24.3008c-8.16016 30.4092 -8.19043 30.4297 0 60.9492c2.29004 8.69043 -0.150391 18 -6.34082 24.3105
c-22.5 22.6797 -21.9697 22.2402 -30.0293 52.8701c-2.25 8.58984 -8.85059 15.3398 -17.1904 17.6094c-30.29 8.2207 -29.8701 7.79004 -52.1602 30.6602c-6.12012 6.18066 -15.1201 8.64062 -23.3096 6.37012c-30.4297 -8.40039 -29.8203 -8.37988 -60.2803 0
c-9.45996 2.5498 -18.0801 -1.09961 -23.2803 -6.41016c-22.4492 -22.8193 -21.3398 -22.21 -52.1299 -30.6201c-8.37988 -2.25977 -14.9697 -9.00977 -17.2197 -17.5898c-8.08984 -30.8496 -7.61035 -30.21 -30.0303 -52.9102
c-6.17969 -6.2998 -8.62012 -15.6094 -6.33984 -24.2998c8.2002 -30.4697 8.15039 -30.4795 0 -60.9502c-2.29004 -8.68945 0.150391 -18 6.33984 -24.3096c22.5 -22.6797 21.9707 -22.2402 30.0303 -52.8701c2.25 -8.58984 8.83984 -15.3398 17.2197 -17.6201
c23.8506 -6.41016 28.5898 -6.67969 45.9707 -24.3594c8 -8.14062 20.25 -9.55078 29.75 -3.52051c18.1299 11.4697 41.5596 11.46 59.6895 0.0205078c9.56055 -6.13086 21.75 -4.63086 29.75 3.47949c17.5801 17.9199 22.3506 18.1201 45.9697 24.3701
c8.38086 2.28027 14.9707 9.03027 17.2207 17.6104z" />
    <glyph glyph-name="file-contract" unicode="&#xf56c;" horiz-adv-x="384" 
d="M196.66 84.6699c19.75 16.1699 54.0303 9.69043 65.9902 -14.1602c2.04004 -4.12012 5.87988 -6.5 10.1592 -6.5h15.1904c8.83984 0 16 -7.16016 16 -16s-7.16016 -16 -16 -16h-15.2002c-16.4297 0 -31.2402 9.14062 -38.6201 23.8398
c-2.93945 5.94043 -8.09961 6.53027 -10.1895 6.53027s-7.25 -0.599609 -10.0303 -6.18945l-7.66016 -15.3301c-2.71973 -5.4502 -8.28027 -8.86035 -14.3096 -8.86035c-0.370117 0 -0.740234 0.0195312 -1.12012 0.0498047
c-6.56543 0.457031 -12.0537 4.88086 -14.0605 10.8906l-16.8096 50.4795l-10.6201 -31.8896c-5.87988 -17.6504 -22.3496 -29.5303 -40.9697 -29.5303h-12.4102c-8.83984 0 -16 7.16016 -16 16s7.16016 16 16 16h12.4102c4.80957 0 9.08984 3.05957 10.5898 7.63965
l18.2197 54.6504c3.28027 9.82031 12.4404 16.4102 22.7803 16.4102s19.5 -6.60059 22.7803 -16.4102zM72 352c-4.41992 0 -8 3.58008 -8 8v16c0 4.41992 3.58008 8 8 8h112c4.41992 0 8 -3.58008 8 -8v-16c0 -4.41992 -3.58008 -8 -8 -8h-112zM192 296
c0 -4.41992 -3.58008 -8 -8 -8h-112c-4.41992 0 -8 3.58008 -8 8v16c0 4.41992 3.58008 8 8 8h112c4.41992 0 8 -3.58008 8 -8v-16zM369.9 350.02c9 -9 14.0996 -21.2998 14.0996 -33.9893v-332.04c0 -26.4902 -21.5 -47.9902 -47.9902 -47.9902h-288.02
c-26.4902 0 -47.9902 21.5 -47.9902 47.9902v415.92c0 26.4902 21.5 47.9902 47.9902 48.0898h204.14c12.6904 0 24.8896 -5.09961 33.8896 -14.0996zM256.03 415.41v-95.4805h95.4795c-0.700195 2.80078 -2.09961 5.30078 -4.2002 7.40039l-83.8799 83.8799
c-2.09961 2.09961 -4.59961 3.5 -7.39941 4.2002zM352.01 -16.0098v304.01h-103.979c-13.2998 0 -24 10.6299 -24 23.9297v104.07h-176.04c-8.7998 0 -16 -7.29004 -16 -16.0898v-415.92c0 -8.7998 7.2002 -16 16 -16h288.02c8.7998 0 16 7.2002 16 16z" />
    <glyph glyph-name="file-download" unicode="&#xf56d;" horiz-adv-x="384" 
d="M369.9 350.02c9 -9 14.0996 -21.2998 14.0996 -33.9893v-332.04c0 -26.4902 -21.5 -47.9902 -47.9902 -47.9902h-288.02c-26.4902 0 -47.9902 21.5 -47.9902 47.9902v415.92c0 26.4902 21.5 47.9902 47.9902 48.0898h204.14c12.6904 0 24.8896 -5.09961 33.8896 -14.0996
zM256.03 415.41v-95.4805h95.4795c-0.700195 2.80078 -2.09961 5.30078 -4.2002 7.40039l-83.8799 83.8799c-2.09961 2.09961 -4.59961 3.5 -7.39941 4.2002zM352.01 -16.0098v304.01h-103.979c-13.2998 0 -24 10.6299 -24 23.9297v104.07h-176.04
c-8.7998 0 -16 -7.29004 -16 -16.0898v-415.92c0 -8.7998 7.2002 -16 16 -16h288.02c8.7998 0 16 7.2002 16 16zM208 232v-88.0195h52.6396c11 0 20.5908 -6.41016 25 -16.7207c4.5 -10.5195 2.37012 -22.6299 -5.43945 -30.8301l-68.1201 -71.75
c-5.33984 -5.60938 -12.4697 -8.69922 -20.0898 -8.69922s-14.75 3.09961 -20.0898 8.68945l-68.1201 71.7803c-7.82031 8.18945 -9.94043 20.29 -5.44043 30.8096c4.41016 10.3105 14 16.7207 25 16.7207h52.6602v88.0195c0 4.41992 3.58008 8 8 8h16
c4.41992 0 8 -3.58008 8 -8zM250.84 111.98h-117.68l58.8398 -62z" />
    <glyph glyph-name="file-export" unicode="&#xf56e;" horiz-adv-x="576" 
d="M567.31 164.11c5.60059 -5.31055 8.7002 -12.4805 8.7002 -20.1201c0 -7.64062 -3.09961 -14.79 -8.71973 -20.1201l-71.7197 -68.1201c-4 -3.78027 -15.9502 -11.8398 -30.8799 -5.38965c-10.3105 4.41992 -16.6904 13.9893 -16.6904 24.9697v52.6699h-280
c-4.41992 0 -8 3.58008 -8 8v16c0 4.41992 3.58008 8 8 8h184.01v128h-103.979c-13.2998 0 -24 10.6299 -24 23.9297v104.07h-176.04c-8.7998 0 -16 -7.29004 -16 -16.0898v-415.92c0 -8.7998 7.2002 -16 16 -16h288.02c8.7998 0 16 7.2002 16 16v112.01h31.9902v-112.01
c0 -26.4902 -21.5 -47.9902 -47.9902 -47.9902h-288.02c-26.4902 0 -47.9902 21.5 -47.9902 47.9902v415.92c0 26.4902 21.5 47.9902 47.9902 48.0898h204.14c12.6904 0 24.8896 -5.09961 33.8896 -14.0996l83.8809 -83.8809c9 -8.98926 14.0996 -21.2891 14.0996 -33.9893
v-156.03h64v52.6797c0 10.9902 6.37988 20.5508 16.6904 24.9707c10.4297 4.5 22.5596 2.41992 30.8398 -5.38086zM256.03 319.93h95.4795c-0.700195 2.80078 -2.09961 5.30078 -4.2002 7.40039l-83.8799 83.8799c-2.09961 2.09961 -4.59961 3.5 -7.39941 4.2002v-95.4805z
M480 85.1201l62 58.8799l-62 58.8799v-117.76z" />
    <glyph glyph-name="file-import" unicode="&#xf56f;" 
d="M497.9 350.02c9 -9 14.0996 -21.2998 14.0996 -33.9893v-332.04c0 -26.4902 -21.5 -47.9902 -47.9902 -47.9902h-288.02c-26.4902 0 -47.9902 21.5 -47.9902 47.9902v112.01h31.9902v-112.01c0 -8.7998 7.2002 -16 16 -16h288.029c8.80078 0 16 7.2002 16 16v304.01
h-103.979c-13.2998 0 -24 10.6299 -24 23.9297v104.07h-176.04c-8.7998 0 -16 -7.29004 -16 -16.0898v-239.91h96.0098v52.6699c0 10.9902 6.37988 20.5498 16.6904 24.9697c10.4297 4.5 22.5596 2.41992 30.8398 -5.37988l71.7803 -68.1602
c5.59961 -5.30957 8.68945 -12.4697 8.68945 -20.1094c0 -7.64062 -3.09961 -14.79 -8.71973 -20.1201l-71.7197 -68.1201c-4 -3.78027 -15.9502 -11.8398 -30.8799 -5.38965c-10.3105 4.41992 -16.6904 13.9893 -16.6904 24.9697v52.6699h-248c-4.41992 0 -8 3.58008 -8 8
v16c0 4.41992 3.58008 8 8 8h120v239.91c0 26.4902 21.5 47.9902 47.9902 48.0898h204.14c12.6904 0 24.8896 -5.09961 33.8896 -14.0996zM288 202.88v-117.76l62 58.8799zM384.03 319.93h95.4795c-0.700195 2.80078 -2.09961 5.30078 -4.2002 7.40039l-83.8799 83.8799
c-2.09961 2.09961 -4.59961 3.5 -7.39941 4.2002v-95.4805z" />
    <glyph glyph-name="file-invoice" unicode="&#xf570;" horiz-adv-x="384" 
d="M312 32c4.41992 0 8 -3.58008 8 -8v-16c0 -4.41992 -3.58008 -8 -8 -8h-80c-4.41992 0 -8 3.58008 -8 8v16c0 4.41992 3.58008 8 8 8h80zM64 208c0 8.83984 8.19043 16 18.29 16h219.43c10.1006 0 18.29 -7.16016 18.29 -16v-96c0 -8.83984 -8.18945 -16 -18.29 -16
h-219.43c-10.0996 0 -18.29 7.16016 -18.29 16v96zM96 192v-64h192v64h-192zM72 352c-4.41992 0 -8 3.58008 -8 8v16c0 4.41992 3.58008 8 8 8h112c4.41992 0 8 -3.58008 8 -8v-16c0 -4.41992 -3.58008 -8 -8 -8h-112zM72 288c-4.41992 0 -8 3.58008 -8 8v16
c0 4.41992 3.58008 8 8 8h112c4.41992 0 8 -3.58008 8 -8v-16c0 -4.41992 -3.58008 -8 -8 -8h-112zM369.9 350.02c9 -9 14.0996 -21.2998 14.0996 -33.9893v-332.04c0 -26.4902 -21.5 -47.9902 -47.9902 -47.9902h-288.02c-26.4902 0 -47.9902 21.5 -47.9902 47.9902v415.92
c0 26.4902 21.5 47.9902 47.9902 48.0898h204.14c12.6904 0 24.8896 -5.09961 33.8896 -14.0996zM256.03 415.41v-95.4805h95.4795c-0.700195 2.80078 -2.09961 5.30078 -4.2002 7.40039l-83.8799 83.8799c-2.09961 2.09961 -4.59961 3.5 -7.39941 4.2002zM352.01 -16.0098
v304.01h-103.979c-13.2998 0 -24 10.6299 -24 23.9297v104.07h-176.04c-8.7998 0 -16 -7.29004 -16 -16.0898v-415.92c0 -8.7998 7.2002 -16 16 -16h288.02c8.7998 0 16 7.2002 16 16z" />
    </font>
</defs>
</svg>
