<?xml version="1.0" standalone="no"?>
<!DOCTYPE svg PUBLIC "-//W3C//DTD SVG 1.1//EN" "http://www.w3.org/Graphics/SVG/1.1/DTD/svg11.dtd" >
<svg xmlns="http://www.w3.org/2000/svg" xmlns:xlink="http://www.w3.org/1999/xlink" version="1.1">
<metadata>
Created by FontForge 20200314 at Wed Jan 13 11:59:47 2021
 By Robert Madole
Copyright (c) Font Awesome
</metadata>
<!-- Font Awesome Pro 5.15.2 by @fontawesome - https://fontawesome.com License - https://fontawesome.com/license (Commercial License) --><defs>
<font id="FontAwesome5Pro-Light" horiz-adv-x="512" >
  <font-face 
    font-family="Font Awesome 5 Pro Light"
    font-weight="300"
    font-stretch="normal"
    units-per-em="512"
    panose-1="2 0 3 3 0 0 0 0 0 0"
    ascent="448"
    descent="-64"
    bbox="-0.0656999 -66.9873 672 448.027"
    underline-thickness="25"
    underline-position="-50"
    unicode-range="U+0020-F8FF"
  />
    <missing-glyph />
    <glyph glyph-name="th" unicode="&#xf00a;" 
d="M0 368c0 26.5098 21.4902 48 48 48h416c26.5098 0 48 -21.4902 48 -48v-352c0 -26.5098 -21.4902 -48 -48 -48h-416c-26.5098 0 -48 21.4902 -48 48v352zM320 384h-128v-106.667h128v106.667zM480 138.667v106.666h-128v-106.666h128zM320 138.667v106.666h-128v-106.666
h128zM32 245.333v-106.667h128v106.667h-128zM160 384h-112c-8.83691 0 -16 -7.16309 -16 -16v-90.667h128v106.667zM32 16c0 -8.83691 7.16309 -16 16 -16h112v106.667h-128v-90.667zM192 0h128v106.667h-128v-106.667zM352 0h112c8.83691 0 16 7.16309 16 16v90.667h-128
v-106.667zM480 277.333v90.667c0 8.83691 -7.16309 16 -16 16h-112v-106.667h128z" />
    <glyph glyph-name="home" unicode="&#xf015;" horiz-adv-x="576" 
d="M541 218.84c1.82617 -1.4668 2.98828 -3.7207 2.98828 -6.24316c0 -1.90332 -0.666016 -3.65234 -1.77832 -5.02637l-10.0996 -12.4102c-1.46777 -1.80371 -3.70703 -2.94824 -6.21094 -2.94824c-1.90918 0 -3.66309 0.669922 -5.03906 1.78809l-40.8604 33.3799v-243.05
c0 -8.83105 -7.16895 -16 -16 -16l-128 -0.330078c-8.83105 0 -16 7.16895 -16 16v128.08l-64 0.299805v-128c0 -8.83008 -7.16895 -16 -16 -16h-128c-8.83105 0 -16 7.16992 -16 16v243l-40.8604 -33.3799c-1.36914 -1.0957 -3.1084 -1.75977 -4.99707 -1.75977
c-2.50098 0 -4.73535 1.15039 -6.20215 2.9502l-10.1006 12.4092c-1.11523 1.375 -1.79102 3.12988 -1.79102 5.03613c0 2.50195 1.15039 4.7373 2.95117 6.2041l232.81 190.021c5.51855 4.4502 12.5791 7.11523 20.2129 7.11523s14.6494 -2.66504 20.168 -7.11523
l139.81 -114.12v51.3301c0 3.31152 2.68848 6 6 6h20c3.31152 0 6 -2.68848 6 -6v-77.4004zM447.89 0.25l0.110352 253.24l-160 130.569l-160 -130.569v-253.24h95.9902v128.14c0 8.83105 7.16797 16 15.999 16h0.0507812l96 -0.269531
c8.79492 -0.0546875 15.9229 -7.19922 15.9502 -16v-128.17l96 0.299805h-0.100586z" />
    <glyph glyph-name="eye" unicode="&#xf06e;" horiz-adv-x="576" 
d="M288 160c-35.3223 0 -64 28.6777 -64 64c0 0.969727 0.290039 1.84961 0.290039 2.84961c5.05469 -1.83496 10.5107 -2.83496 16.1973 -2.83496c26.2158 0 47.5 21.2842 47.5 47.5c0 5.68652 -1.00195 11.1406 -2.83691 16.1953
c0.969727 0.0498047 1.84961 0.290039 2.84961 0.290039c35.3223 0 64 -28.6777 64 -64s-28.6777 -64 -64 -64zM572.52 206.6c2.21387 -4.37793 3.46094 -9.38965 3.46094 -14.626c0 -5.2373 -1.24707 -10.1855 -3.46094 -14.5635
c-54.1992 -105.771 -161.59 -177.41 -284.52 -177.41s-230.29 71.5898 -284.52 177.4c-2.21387 4.37793 -3.46094 9.38965 -3.46094 14.626c0 5.2373 1.24707 10.1855 3.46094 14.5635c54.1992 105.771 161.59 177.41 284.52 177.41s230.29 -71.5898 284.52 -177.4zM288 352
c-70.6094 -0.0771484 -127.923 -57.3906 -128 -128c0 -70.6455 57.3545 -128 128 -128s128 57.3545 128 128s-57.3545 128 -128 128zM288 32c107.36 0 205.47 61.3096 256 160c-28.4697 55.8896 -73.7793 101.049 -129.78 129.33
c20.8701 -27.0205 33.7803 -60.5 33.7803 -97.3301c0 -88.3066 -71.6934 -160 -160 -160s-160 71.6934 -160 160c0 36.8301 12.9102 70.3096 33.7803 97.3301c-56.001 -28.2812 -101.311 -73.4404 -129.78 -129.33c50.54 -98.6904 148.64 -160 256 -160z" />
    <glyph glyph-name="eye-slash" unicode="&#xf070;" horiz-adv-x="640" 
d="M637 -37.25c1.83203 -1.4668 2.99805 -3.72461 2.99805 -6.25098c0 -1.88672 -0.654297 -3.62109 -1.74805 -4.98926l-10 -12.5098c-1.4668 -1.83496 -3.72559 -3.00293 -6.25488 -3.00293c-1.88867 0 -3.62598 0.65625 -4.99512 1.75293l-614 483.5
c-1.82812 1.4668 -2.99121 3.72168 -2.99121 6.24609c0 1.88867 0.655273 3.625 1.75098 4.99414l10 12.5098c1.4668 1.83203 3.72461 2.99805 6.25098 2.99805c1.88672 0 3.62109 -0.654297 4.98926 -1.74805zM320 352c-32.4404 0 -61.7598 -12.5195 -84.3496 -32.4297
l-45.7705 36c39.4883 18.1455 83.6787 28.4297 129.952 28.4297h0.167969c122.94 0 230.3 -71.5898 284.53 -177.4c2.21289 -4.37793 3.45996 -9.38965 3.45996 -14.626c0 -5.2373 -1.24707 -10.1855 -3.45996 -14.5635c-18.0605 -35.25 -42.46 -66.2305 -70.9307 -92.5098
l-25.3193 19.9395c27.7695 24.5869 50.6328 53.8916 67.7695 87.1602c-28.4873 55.8926 -73.8135 101.051 -129.83 129.33c20.8701 -27.0205 33.7803 -60.5 33.7803 -97.3301c0 -29.1396 -8.34961 -56.0898 -21.9502 -79.5703l-25.4502 20
c9.5 17.8799 15.4004 37.9502 15.4004 59.5703c-0.0771484 70.6094 -57.3906 127.923 -128 128zM380.86 205.17l-63.9502 50.3496c1.9834 5.08008 3.07422 10.6504 3.07422 16.4287c0 5.54297 -1.00195 10.8545 -2.83398 15.7617
c0.959961 0.0498047 1.84961 0.290039 2.84961 0.290039c0.290039 0.00390625 0.549805 -0.00195312 0.84082 -0.00195312c34.8535 0 63.1504 -28.2969 63.1504 -63.1504c0 -6.86914 -1.09961 -13.4844 -3.13086 -19.6777zM163.24 254.33l29.4795 -23.21
c-0.129883 -2.40039 -0.719727 -4.67969 -0.719727 -7.12012c0.0830078 -70.6104 57.3984 -127.923 128.01 -128c12.8301 0 24.9805 2.46973 36.6807 6l29.5791 -23.29c-20.3066 -9.3877 -43.0557 -14.7227 -66.8809 -14.7227c-87.9697 0 -159.39 71.4209 -159.39 159.391
c0 0.207031 0 0.415039 0.000976562 0.62207c0.0771484 10.417 1.19141 20.499 3.24023 30.3301zM320 32c35.1504 0 69.0596 7.16016 100.87 19.4297l29.25 -23c-39.4902 -18.1455 -83.6816 -28.4297 -129.956 -28.4297h-0.164062c-122.93 0 -230.29 71.5898 -284.48 177.4
c-2.21289 4.37793 -3.45996 9.38965 -3.45996 14.626c0 5.2373 1.24707 10.1855 3.45996 14.5635c18.0605 35.25 42.4502 66.2197 70.9307 92.5l25.8594 -20.3701c-27.2197 -24 -50.8799 -52.7197 -68.3096 -86.7197c50.5303 -98.6904 148.64 -160 256 -160z" />
    <glyph glyph-name="tty" unicode="&#xf1e4;" 
d="M364 -16c6.59961 0 12 -5.40039 12 -12v-8c0 -6.59961 -5.40039 -12 -12 -12h-216c-6.59961 0 -12 5.40039 -12 12v8c0 6.59961 5.40039 12 12 12h216zM184 52v24c0 6.59961 5.40039 12 12 12h24c6.59961 0 12 -5.40039 12 -12v-24c0 -6.59961 -5.40039 -12 -12 -12h-24
c-6.59961 0 -12 5.40039 -12 12zM136 76v-24c0 -6.59961 -5.40039 -12 -12 -12h-24c-6.59961 0 -12 5.40039 -12 12v24c0 6.59961 5.40039 12 12 12h24c6.59961 0 12 -5.40039 12 -12zM76 -8c6.59961 0 12 -5.40039 12 -12v-24c0 -6.59961 -5.40039 -12 -12 -12h-24
c-6.59961 0 -12 5.40039 -12 12v24c0 6.59961 5.40039 12 12 12h24zM52 136c-6.59961 0 -12 5.40039 -12 12v24c0 6.59961 5.40039 12 12 12h24c6.59961 0 12 -5.40039 12 -12v-24c0 -6.59961 -5.40039 -12 -12 -12h-24zM268 184c6.59961 0 12 -5.40039 12 -12v-24
c0 -6.59961 -5.40039 -12 -12 -12h-24c-6.59961 0 -12 5.40039 -12 12v24c0 6.59961 5.40039 12 12 12h24zM172 184c6.59961 0 12 -5.40039 12 -12v-24c0 -6.59961 -5.40039 -12 -12 -12h-24c-6.59961 0 -12 5.40039 -12 12v24c0 6.59961 5.40039 12 12 12h24zM460 184
c6.59961 0 12 -5.40039 12 -12v-24c0 -6.59961 -5.40039 -12 -12 -12h-24c-6.59961 0 -12 5.40039 -12 12v24c0 6.59961 5.40039 12 12 12h24zM502.2 345.7c11 -11 13 -27.9004 4.7998 -41.1006l-40.5 -65c-8.59961 -13.6992 -25.5996 -19.2998 -40.5 -13.2998l-81 32.5
c-13.7002 5.5 -22.2002 19.5 -20.7002 34.2002l4.2998 43.2002c-47.1992 14.5 -97.8994 14.5 -145.1 0l4.2998 -43.2002c1.40039 -14.7002 -7.09961 -28.7002 -20.7002 -34.2002l-81 -32.5c-15 -5.89941 -32 -0.399414 -40.5 13.2998l-40.5 65
c-8.19922 13.2002 -6.2998 30.1006 4.7002 41.1006c135.8 136.2 356.3 136.5 492.4 0zM479.8 321.6c0.299805 0.400391 0.200195 1.10059 -0.200195 1.5c-123.5 123.801 -323.6 123.9 -447 0c-0.399414 -0.399414 -0.5 -1 -0.199219 -1.5l40.5 -65
c0.299805 -0.5 0.899414 -0.699219 1.39941 -0.5l81 32.5c0.5 0.200195 0.799805 0.700195 0.700195 1.2002l-6.7998 68.4004c76 27.5 134.8 28.5996 213.8 0l-6.7998 -68.4004c-0.100586 -0.5 0.200195 -1 0.700195 -1.2002l81 -32.5c0.5 -0.199219 1.09961 0 1.39941 0.5z
M460 -8c6.59961 0 12 -5.40039 12 -12v-24c0 -6.59961 -5.40039 -12 -12 -12h-24c-6.59961 0 -12 5.40039 -12 12v24c0 6.59961 5.40039 12 12 12h24zM280 52v24c0 6.59961 5.40039 12 12 12h24c6.59961 0 12 -5.40039 12 -12v-24c0 -6.59961 -5.40039 -12 -12 -12h-24
c-6.59961 0 -12 5.40039 -12 12zM424 76v-24c0 -6.59961 -5.40039 -12 -12 -12h-24c-6.59961 0 -12 5.40039 -12 12v24c0 6.59961 5.40039 12 12 12h24c6.59961 0 12 -5.40039 12 -12zM364 136h-24c-6.59961 0 -12 5.40039 -12 12v24c0 6.59961 5.40039 12 12 12h24
c6.59961 0 12 -5.40039 12 -12v-24c0 -6.59961 -5.40039 -12 -12 -12z" />
    <glyph glyph-name="phone-volume" unicode="&#xf2a0;" horiz-adv-x="448" 
d="M154.9 260.2l-43.2002 4.2998c-14.5 -47.2002 -14.5 -97.9004 0 -145.1l43.2002 4.2998c14.6992 1.39941 28.6992 -7.10059 34.1992 -20.7002l32.5 -81c5.90039 -15 0.400391 -32 -13.2998 -40.5l-65 -40.5c-13.2002 -8.2002 -30.0996 -6.2998 -41.0996 4.7002
c-136.2 135.899 -136.5 356.3 0 492.5c11 11 27.8994 12.8994 41.0996 4.7002l65 -40.5c13.7002 -8.60059 19.2998 -25.6006 13.2998 -40.5l-32.5 -81c-5.5 -13.7002 -19.5 -22.2002 -34.1992 -20.7002zM89.7998 85.0996c-27.5996 76 -28.7002 134.801 0 213.9
l68.4004 -6.7998c0.5 -0.100586 1 0.200195 1.2002 0.700195l32.5 81c0.199219 0.5 0 1.09961 -0.5 1.39941l-65 40.5c-0.5 0.299805 -1.10059 0.200195 -1.5 -0.200195c-123.801 -123.5 -123.9 -323.6 0 -447.1c0.399414 -0.400391 1 -0.5 1.5 -0.200195l65 40.5
c0.5 0.299805 0.699219 0.900391 0.5 1.40039l-32.5 81c-0.200195 0.5 -0.700195 0.799805 -1.2002 0.700195zM292.2 355.1c5.7002 5.40039 14.7998 4.10059 18.7002 -2.39941c11.7998 -20.1006 11.7998 -45.1006 0 -65.1006
c-3.90039 -6.69922 -13.1006 -8 -18.7002 -2.59961l-6 5.7002c-3.90039 3.7002 -4.7998 9.59961 -2.2998 14.3994c4.89941 9.30078 4.89941 20.5 0 29.9004c-2.5 4.7998 -1.60059 10.7002 2.2998 14.4004zM357 398.8c36.0996 -46.3994 36.0996 -111.3 0 -157.5
c-4.40039 -5.59961 -12.7002 -6.2002 -17.9004 -1.2998l-5.7998 5.59961c-4.39941 4.2002 -5 11.1006 -1.2998 15.9004c26.5 34.5 26.5 82.5 0 117.1c-3.7002 4.80078 -3.09961 11.7002 1.2998 15.9004l5.7998 5.59961c5.2002 5 13.5 4.30078 17.9004 -1.2998zM402.9 443.7
c60.0996 -71.5 60.1992 -175.8 0 -247.601c-4.5 -5.2998 -12.6006 -5.69922 -17.6006 -0.899414l-5.7998 5.59961c-4.5 4.40039 -4.90039 11.6006 -0.900391 16.4004c49.6006 59.5 49.7002 145.899 0 205.399c-4.09961 4.90039 -3.69922 12 0.900391 16.4004l5.7998 5.59961
c5.10059 4.80078 13.1006 4.40039 17.6006 -0.899414z" />
    <glyph glyph-name="battery-slash" unicode="&#xf377;" horiz-adv-x="640" 
d="M637 -37.25c1.82812 -1.4668 2.99121 -3.72168 2.99121 -6.24609c0 -1.88867 -0.655273 -3.625 -1.75098 -4.99414l-10 -12.5098c-1.4668 -1.83203 -3.72461 -2.99805 -6.25098 -2.99805c-1.88672 0 -3.62109 0.654297 -4.98926 1.74805l-614 483.5
c-1.82812 1.4668 -2.99121 3.72168 -2.99121 6.24609c0 1.88867 0.655273 3.625 1.75098 4.99414l10 12.5098c1.4668 1.83203 3.72461 2.99805 6.25098 2.99805c1.88672 0 3.62109 -0.654297 4.98926 -1.74805zM48 64h357l40.5801 -32h-397.58
c-26.4922 0 -48 21.5078 -48 48v224c0.0341797 23.7725 17.4688 43.5107 40.21 47.21l39.6396 -31.21h-31.8496c-8.83105 0 -16 -7.16895 -16 -16v-224c0 -8.83105 7.16895 -16 16 -16zM616 288c13.2461 0 24 -10.7539 24 -24v-144c0 -13.2461 -10.7539 -24 -24 -24h-8v-16
c-0.0244141 -15.7578 -7.64551 -29.7148 -19.4404 -38.4102l-28.4492 22.4102c8.77832 0.0605469 15.8896 7.20703 15.8896 16v48h32v128h-32v48c0 8.83105 -7.16895 16 -16 16h-325l-40.5996 32h365.6c26.4922 0 48 -21.5078 48 -48v-16h8z" />
    <glyph glyph-name="diagnoses" unicode="&#xf470;" horiz-adv-x="640" 
d="M160 192c0 11 -3.7998 20.9004 -10 29c49.5 19 108.9 35 170 35c47.4004 0 93.7002 -9.7002 135.2 -22.9004c-7 -11.3994 -7.90039 -21.6992 -6.60059 -31.5c-39.5996 12.8008 -83.6992 22.4004 -128.6 22.4004c-57.0996 0 -113.4 -15.2998 -160.1 -33.4004
c0 0.400391 0.0996094 0.900391 0.0996094 1.40039zM496 192c-8.7998 0 -16 7.2002 -16 16s7.2002 16 16 16s16 -7.2002 16 -16s-7.2002 -16 -16 -16zM584.6 119.6c5.10059 7.60059 3 17.8008 -4.7998 22.5c-11.7002 7 -30.7002 17.5 -53.8994 28.6006
c8.5 6.7998 14.7998 16.2998 17.0996 27.2998c22.2998 -10.7998 40.7998 -21.0996 53.2002 -28.5c26.5 -15.9004 28.2002 -48 15.0996 -67.7002l-17.7998 -26.7002c-15.2002 -22.7998 -43.9004 -26.6992 -64.2998 -14.6992c-13.4004 7.89941 -43.2998 24.5 -81.2002 39.3994
v-95.7998c0 -2.2002 -1.7998 -4 -4 -4h-24c-2.2002 0 -4 1.7998 -4 4v140.7c57.7002 -17 107 -43.5 129.4 -56.7002c6.89941 -4.09961 16.3994 -2.59961 21.3994 4.90039zM416 352c0 -52.9004 -43.0996 -96 -96 -96s-96 43.0996 -96 96s43.0996 96 96 96s96 -43.0996 96 -96
zM320 288c35.2998 0 64 28.7002 64 64s-28.7002 64 -64 64s-64 -28.7002 -64 -64s28.7002 -64 64 -64zM46.5 75.0996l-17.7002 26.6006c-13.2002 19.8994 -11.2998 51.8994 15.1006 67.7002c5.7998 3.5 13.0996 7.69922 21.2998 12.1992
c2.39941 -10.8994 8.7002 -20.2998 17.2002 -27.0996c-8.7002 -4.7002 -16.4004 -9.09961 -22.1006 -12.5c-7.7998 -4.7002 -10 -14.9004 -4.89941 -22.5l17.7998 -26.7002c5 -7.39941 14.3994 -9 21.3994 -4.89941c22.3008 13.1992 71.7002 39.7998 129.4 56.6992v-140.6
c0 -2.2002 -1.7998 -4 -4 -4h-24c-2.2002 0 -4 1.7998 -4 4v95.7998c-37.9004 -14.7998 -67.9004 -31.5 -81.2002 -39.3994c-20.5996 -12.2002 -49.2998 -7.90039 -64.2998 14.6992zM632 -32c4.40039 0 8 -3.59961 8 -8v-16c0 -4.40039 -3.59961 -8 -8 -8h-624
c-4.40039 0 -8 3.59961 -8 8v16c0 4.40039 3.59961 8 8 8h624zM112 176c-8.7998 0 -16 7.2002 -16 16s7.2002 16 16 16s16 -7.2002 16 -16s-7.2002 -16 -16 -16zM256 144c0 8.7998 7.2002 16 16 16s16 -7.2002 16 -16s-7.2002 -16 -16 -16s-16 7.2002 -16 16zM352 48
c0 8.7998 7.2002 16 16 16s16 -7.2002 16 -16s-7.2002 -16 -16 -16s-16 7.2002 -16 16z" />
    <glyph glyph-name="box-full" unicode="&#xf49c;" horiz-adv-x="640" 
d="M638.3 208.2c4.5 -9.2002 -0.299805 -20.2002 -10.2002 -23l-52.0996 -14.9004v-147.3c0 -14.5996 -10 -27.4004 -24.2002 -31l-216.399 -54.0996c-6 -1.5 -17.4004 -3.40039 -31 0l-216.2 54.0996c-14.2002 3.5 -24.2002 16.2998 -24.2002 31v147.3l-52.2002 14.9004
c-9.7998 2.7998 -14.7002 13.7998 -10.0996 23l51.5 102.8c2.7998 5.5 8.5 9 14.5996 9c1.2002 0 0 0.200195 29.5 -3.59961c6.40039 73.5996 67.4004 131.6 142.7 131.6c77.7002 0 140.7 -61.7002 143.5 -138.7l42.7998 117.7c6.10059 16.5996 24.5 25.0996 41 19.0996
l55.7002 -20.2998c16.5996 -6 25.0996 -24.3994 19.0996 -41l-26.1992 -71.7998c60.5996 7.7002 55.2998 7 56.2998 7c6.09961 0 11.7998 -3.40039 14.5996 -9zM456.4 416l-42.2002 -115.9l66 8.40039l31.7998 87.2998zM38.7998 210.7l168.3 -48.1006l60.1006 99.8008
l-190.4 24.2998zM304 -29v290.5l-75.7002 -125.6c-3 -5 -8.39941 -7.90039 -14 -7.90039c-3.2998 0 5 -2.09961 -118.3 33.0996v-138.1zM320 288l30.9004 3.90039c0.5 4 1.09961 8 1.09961 12.0996c0 61.7998 -50.2002 112 -112 112
c-58.9004 0 -106.8 -45.7998 -111.1 -103.6c36.5 -4.7002 95.3994 -12.2002 191.1 -24.4004zM544 23v138.2c-123.5 -35.2002 -115 -33.1006 -118.3 -33.1006c-5.60059 0 -11 2.90039 -14 7.90039l-75.7002 125.5v-290.5zM432.9 162.7l168.3 48.0996l-38 76l-190.4 -24.2998z
" />
    <glyph glyph-name="box-open" unicode="&#xf49e;" horiz-adv-x="608" 
d="M606.4 304.2c4.2998 -9.2002 -0.300781 -20.2002 -9.7002 -23l-49.5 -14.9004v-211.3c0 -14.5996 -9.5 -27.4004 -23 -31l-205.601 -54.0996c-5.7998 -1.5 -16.5 -3.40039 -29.5 0l-205.399 54.0996c-13.5 3.5 -23 16.2998 -23 31v211.3l-49.5 14.9004
c-9.2998 2.7998 -14 13.7998 -9.60059 23l48.9004 102.8c2.7002 5.5 8.09961 9 13.9004 9c0.599609 0 239.6 -32 239.6 -32s239 32 239.6 32c5.80078 0 11.2002 -3.40039 13.9004 -9zM73 382.7l-36.0996 -76l159.899 -48.1006l57.1006 99.8008zM91.2002 257.1v-202.1
l197.6 -52v354.4l-71.8994 -125.5c-2.80078 -5 -7.90039 -7.90039 -13.3008 -7.90039c-3.09961 0 4.7002 -2.09961 -112.399 33.0996zM516.8 55v202.2c-117.399 -35.2002 -109.3 -33.1006 -112.399 -33.1006c-5.30078 0 -10.4004 2.90039 -13.3008 7.90039l-71.8994 125.5
v-354.5zM411.3 258.7l159.8 48l-36.0996 76l-180.8 -24.2002z" />
    <glyph glyph-name="home-heart" unicode="&#xf4c9;" horiz-adv-x="576" 
d="M573.5 228.1c2.7998 -2.39941 3.40039 -6.69922 1.09961 -9.69922l-14.1992 -17.5c-2.40039 -2.90039 -6.7002 -3.40039 -9.60059 -1l-38.7998 31.2998v-279.2c0 -8.7998 -7.2002 -16 -16 -16h-416c-8.7998 0 -16 7.2002 -16 16v279.3l-38.7002 -31.2002
c-3 -2.39941 -7.2002 -1.89941 -9.59961 1l-14.2002 17.5c-2.40039 2.90039 -1.90039 7.10059 1 9.5l262.9 211.9c13.0996 10.7002 32 10.7002 45.1992 0l169.4 -136.6v72.5996c0 4.40039 3.59961 8 8 8h16c4.40039 0 8 -3.59961 8 -8v-98.4004zM480 -32v289l-187.9 151.5
c-2.39941 2 -5.89941 2 -8.39941 0l-187.7 -151.4v-289.1h384zM276.9 246.5l11.0996 -11.7002l11.2002 11.7002c15.3994 16.0996 63 44 104.899 7.7002c35.4004 -30.6006 37.2002 -85.5 5.60059 -118.7l-108.9 -114.1c-7.09961 -7.40039 -18.5 -7.40039 -25.5 0
l-108.899 114.1c-31.6006 33.0996 -29.7002 88.0996 5.59961 118.7c32.4004 28.2002 78.2998 20.2002 104.9 -7.7002zM321.7 224.2l-33.7002 -35.2998l-33.7002 35.2998c-11.8994 12.5 -39.7002 25 -61.8994 5.7002c-23.8008 -20.5 -20.1006 -54.6006 -3.40039 -72.1006
l99 -103.8l99 103.8c16.7998 17.6006 20.4004 51.5 -3.40039 72.1006c-24.3994 21.0996 -53.1992 3.5 -61.8994 -5.7002z" />
    <glyph glyph-name="drumstick" unicode="&#xf6d6;" 
d="M471.25 390.41c31.5303 -35.5205 45.4902 -81.6201 39.3496 -129.75c-7 -53.8203 -37.5596 -102.5 -84 -133.5c-31.3398 -20.9697 -65.4697 -31.1602 -104.34 -31.1602h-70.1201l-43.2998 -43.3799c-5.93945 -5.92969 -3.05957 -14.6797 -2.05957 -17.21
c18.8701 -47.1904 -15.54 -99.4102 -67.3906 -99.4102c-37.3301 0 -69.6797 28.2998 -71.6797 67.6699c-52.1299 2.61035 -67.71 50.1396 -67.71 71.6699c0 0.0126953 0.0419922 -0.00488281 0.0419922 0.00683594c0 40.0312 32.5 72.5303 72.5303 72.5303
c9.49023 0 18.5566 -1.82617 26.8682 -5.14648c8.10938 -3.26074 14.0898 -1.08008 17.2197 2.05957l43.3398 43.3496v69.3008c0 70.6191 35.6299 114.22 62.4697 140.85c33.1299 33.0195 79.1006 50.9297 126 49.6504c48.8535 -1.33887 92.6279 -23.2783 122.78 -57.5303z
M186.25 75.2695l26.0303 26.0205c-21.6426 8.10742 -38.7959 25.2412 -46.9307 46.8701l-26 -26c-13.8096 -13.8203 -34.0898 -16.25 -51.8096 -9.12012c-4.60742 1.85352 -9.66016 2.88965 -14.9268 2.88965h-0.0732422c-52.21 0 -53.8301 -77.7598 -3.20996 -80.2998
l28.9102 -1.4502l1.4502 -28.9102c3.0293 -60.6191 100.869 -40.4395 77.3994 18.2607c-7.45996 18.8799 -3.93945 38.6602 9.16016 51.7393zM478.84 264.71c5 38.8496 -6.21973 75.9502 -31.5303 104.44c-24.5 27.8604 -60.0889 45.707 -99.8096 46.79
c-1.52637 0.0400391 -3.02637 0.0595703 -4.5 0.0595703c-0.185547 0.000976562 -0.378906 0.0205078 -0.563477 0.0205078c-38.04 0 -72.499 -15.4541 -97.4365 -40.4209c-36.6504 -36.4199 -53 -72.8594 -53 -118.149v-81.4502c0.131836 -26.5117 21.6934 -48 48.2363 -48
h0.143555h81.9004c32.3398 0 60.6494 8.40039 86.5596 25.71c38.1904 25.54 64.3398 67 70 111z" />
    <glyph glyph-name="drumstick-bite" unicode="&#xf6d7;" 
d="M471.39 390.42c26.54 -29.8799 40.6104 -67.0703 40.6104 -107.55c0 -0.0117188 0.000976562 -0.0205078 0.000976562 -0.0322266c0 -8.83105 -7.16895 -16 -16 -16c-1.59863 0 -3.14355 0.234375 -4.60059 0.671875c-10.29 3.07031 -18.9404 4.49023 -27.29 4.49023
c-52.9512 -0.0712891 -95.9287 -43.0498 -96 -96c0.0419922 -18.0908 5.25781 -35.0938 14.1592 -49.4297c1.46582 -2.41602 2.31445 -5.26562 2.31445 -8.29395c0 -7.38281 -5.01074 -13.6045 -11.8145 -15.4463c-16.0615 -4.42969 -32.9287 -6.82422 -50.3896 -6.83008
h-70.1494l-43.3906 -43.3799c-5.93945 -5.92969 -3.05957 -14.6797 -2.05957 -17.21c18.8701 -47.1904 -15.54 -99.4102 -67.3906 -99.4102c-37.3301 0 -69.6797 28.2998 -71.6797 67.6699c-52.1299 2.61035 -67.71 50.1396 -67.71 71.6699
c0 0.0126953 0.0419922 -0.00488281 0.0419922 0.00683594c0 40.0312 32.5 72.5303 72.5303 72.5303c9.49023 0 18.5566 -1.82617 26.8682 -5.14648c8.10938 -3.26074 14.0898 -1.08008 17.2197 2.05957l43.3896 43.3701v69.29c0 70.6201 35.6406 114.22 62.46 140.85
c33.1602 32.9805 78.4902 50.8506 126.03 49.6406c48.875 -1.33105 92.6719 -23.2666 122.85 -57.5205zM186.23 75.2695l26.0996 26.0107c-21.6689 8.09766 -38.8486 25.2373 -47 46.8799l-26 -26c-13.8105 -13.8203 -34.0898 -16.25 -51.8105 -9.12012
c-4.60645 1.85352 -9.65918 2.88965 -14.9268 2.88965h-0.0732422c-52.21 0 -53.8291 -77.7598 -3.20996 -80.2998l28.9102 -1.4502l1.4502 -28.9102c3.03027 -60.6191 100.87 -40.4395 77.4004 18.2607c-7.45996 18.8799 -3.94043 38.6602 9.16016 51.7393zM464.14 304
c4.88086 -0.00976562 9.5791 -0.336914 14.29 -0.969727c-3.72266 25.1221 -14.8252 48.041 -31 66.1299c-24.5195 27.8672 -60.1279 45.7139 -99.8701 46.79c-1.5 0.0400391 -3 0.0595703 -4.5 0.0595703c-0.174805 0.000976562 -0.358398 0.0205078 -0.533203 0.0205078
c-38.0508 0 -72.5205 -15.457 -97.4668 -40.4307c-36.6494 -36.4297 -53 -72.8691 -53 -118.159v-81.4404c0.131836 -26.5117 21.6943 -48 48.2373 -48h0.15332h81.9297c0.0654297 0 -0.0283203 -0.00488281 0.0371094 -0.00488281
c7.71875 0 15.3057 0.564453 22.7227 1.65527c-5.7334 14.3145 -8.95703 30.0068 -9 46.3496c0.0888672 70.6045 57.3965 127.912 128 128z" />
    <glyph glyph-name="pie" unicode="&#xf705;" horiz-adv-x="576" 
d="M528.49 219.77c42.3594 -1.76953 47.5098 -37.1396 47.5098 -45.9092c-0.125977 -25.3311 -20.7266 -45.8604 -46.0859 -45.8604h-0.164062c-2.71973 0 -4.78027 0.589844 -7.32031 0.759766l-32.4297 -97.3096c-6.09082 -18.2686 -23.3262 -31.4463 -43.6299 -31.4502
h-316.74c-20.3008 0.00195312 -37.5352 13.1758 -43.6299 31.4404l-32.46 97.3193c-2.5498 -0.160156 -4.59961 -0.759766 -7.32031 -0.759766c-0.0439453 0 -0.0859375 0.00390625 -0.129883 0.00390625c-25.3604 0 -45.9639 20.5264 -46.0898 45.8564
c0 8.5 5 44.2695 47.5303 45.9092c37.8799 98.5605 133.54 164.23 240.47 164.23s202.58 -65.6699 240.49 -164.23zM459.65 41.5898l31.2598 93.8105c-10.4561 4.2793 -20.2363 9.91699 -29.0801 16.6895c-11 8.2002 -14.2402 8.07031 -25.1201 0
c-12.1299 -9 -32.4697 -24.0596 -67.9404 -24.0596c-35.4697 0 -55.7793 15 -67.9297 24c-12.7002 9.4502 -16.1396 6.75977 -25.21 0.0498047c-12.1602 -9.02051 -32.5303 -24.0801 -68 -24.0801s-55.8203 15 -67.9395 24
c-12.8105 9.49023 -16.3203 6.7998 -25.4102 0.0595703c-8.88086 -6.77832 -18.7031 -12.417 -29.2002 -16.6895l31.2598 -93.79c1.85156 -5.56348 7.09863 -9.57812 13.2803 -9.58008h316.75c6.18359 0.00292969 11.4316 4.02246 13.2803 9.58984zM529.77 160
c7.65527 0 13.8809 6.16504 13.8809 13.8203c0 7.6543 -6.21484 13.8701 -13.8701 13.8701c-6.20996 0 -11.0303 -0.600586 -26.7803 8.30957c-53.2803 154 -199 156 -215 156c-16.2803 0 -161.77 -2.13965 -215.1 -156.06
c-15.6699 -8.65039 -21.3604 -8.1709 -26.75 -8.1709c-7.65527 0 -13.8701 -6.21484 -13.8701 -13.8691c0 -7.65527 6.21484 -13.8701 13.8701 -13.8701c25 0 38.3193 9.83984 49 17.7393c33.7598 25 56.6895 5 63.4697 0c10.75 -7.92969 24 -17.7695 49 -17.7695
s38.25 9.83984 48.9102 17.7695c9.7998 7.25 31.4795 23.6807 63.2998 0c10.7197 -7.92969 23.9697 -17.7695 48.9395 -17.7695c24.9707 0 38.2305 9.83984 48.8701 17.75c13.1602 9.75 33.5107 22.0596 63.2207 0.0595703
c10.7197 -7.96973 23.9697 -17.8096 48.9092 -17.8096zM199.16 302.31c5.25391 -2.62402 8.83984 -8.06055 8.83984 -14.3281c0 -2.56641 -0.604492 -4.99121 -1.67969 -7.1416l-16 -32c-3.11035 -6.16016 -11.9307 -11.8594 -21.4707 -7.16016
c-5.25293 2.625 -8.83984 8.06152 -8.83984 14.3291c0 2.56543 0.605469 4.99121 1.68066 7.1416l16 32c2.64746 5.24219 8.08984 8.81641 14.3594 8.81641c2.55273 0 4.96582 -0.59668 7.11035 -1.65723zM398.3 295.16l16 -32
c1.0752 -2.15039 1.70508 -4.58203 1.70508 -7.14746c0 -6.26758 -3.61133 -11.6982 -8.86523 -14.3223c-9.54004 -4.7002 -18.3701 0.989258 -21.4697 7.15918l-16 32c-1.07422 2.15039 -1.69824 4.60645 -1.69824 7.1709c0 8.83301 7.17188 16.0039 16.0039 16.0039
c6.26758 0 11.6992 -3.61133 14.3242 -8.86426zM288 304c8.83105 0 16 -7.16895 16 -16v-32c0 -8.83105 -7.16895 -16 -16 -16s-16 7.16895 -16 16v32c0 8.83105 7.16895 16 16 16z" />
    <glyph glyph-name="turkey" unicode="&#xf725;" horiz-adv-x="640" 
d="M579.77 372.45c39.2305 -4.36035 63.5508 -38.7402 59.8203 -74.0703c-3.83984 -37.3799 -37 -63.8398 -73 -59.79c-8.66895 0.927734 -16.9639 3.6123 -24.2695 7.62012c-3.90039 2.12012 -17.54 8.38965 -28.3008 -0.5c-8.44922 -6.94043 -6 -5.53027 -10 -9.16992
c44.7305 -54.9102 72.0908 -119.8 72.0908 -172.54c0 -114.88 -128.73 -128 -287.551 -128c-158.819 0 -288.56 13.1396 -288.56 128s129.74 288 288.56 288c44.9502 0 87.3105 -14.1797 125.2 -36.6699c14.5 8.92969 17.5801 11.8701 29.5 21.6602
c6.95996 5.7002 9.36035 15.7002 6.45996 26.7598c-12.1201 44.9102 24.9902 89.0098 71.1699 83.8301c39.1699 -4.24023 64.4004 -42 58.8799 -75.1299zM544.17 64c0 44.3799 -23.7695 100.51 -62.3799 148.88c-18.4297 -23.0498 -32.29 -49.8799 -39.3799 -78.8799
c-9.41016 -38.4697 -44.8105 -102 -122.68 -102c-0.130859 0 -0.239258 -0.0507812 -0.369141 -0.0507812c-36.9541 0 -70.209 15.9619 -93.2412 41.3604c-29.8896 32.9307 -40.5801 78.5908 -28.5801 122.131c14.5098 52.6992 64.3398 90.7598 121.2 92.6992
c20.04 0.669922 35.7695 2.24023 58.8701 10.1504c-27.8604 13.4502 -57.8203 21.71 -89 21.71c-138.61 0 -256.61 -157.25 -256.61 -256c0 -70.8896 67.8604 -96 256.57 -96s255.6 25.1201 255.6 96zM557.68 274.27c20.6201 -11.3291 47.5303 2.06055 50.2002 27.4707
c2 19.3799 -11.7295 36.8594 -30.6699 38.8594c-1.07715 0.104492 -2.15234 0.144531 -3.25781 0.144531c-4.23926 0 -8.2959 -0.787109 -12.0322 -2.22461c-1.72363 -0.634766 -3.58301 -0.970703 -5.52637 -0.970703c-8.83008 0 -16 7.16895 -16 16
c0 3.08887 0.87793 5.97461 2.39648 8.4209c2.82812 4.40137 4.72168 9.54883 5.33984 15c3.31055 32.0898 -32.4795 50.1904 -55.5996 31.46c-8.00488 -6.48828 -13.0967 -16.374 -13.0967 -27.4707c0 -3.09473 0.398438 -6.09766 1.14648 -8.95898
c19.8799 -75.4805 -106.05 -114 -153.34 -115.6c-75.4902 -2.48047 -94.9199 -54.9707 -98.9199 -69.4805c-9.08008 -32.9199 -1.10059 -67.3398 21.3994 -92.1201c22.1904 -24.4502 54.0801 -35.1396 87.2803 -29.2295c35.3701 6.19922 64.4199 35.46 74 74.54
c8.44043 34.4092 69.6104 176.25 146.68 134.159z" />
    <glyph glyph-name="ball-pile" unicode="&#xf77e;" horiz-adv-x="576" 
d="M480 128c53 0 96 -43 96 -96s-43 -96 -96 -96s-96 43 -96 96c0 27.2002 11.4004 51.7002 29.7002 69.2002c-9.40039 -3.10059 -19.2002 -5.2002 -29.7002 -5.2002s-20.2998 2.09961 -29.7002 5.2002c18.2998 -17.5 29.7002 -42 29.7002 -69.2002c0 -53 -43 -96 -96 -96
s-96 43 -96 96c0 27.2002 11.4004 51.7002 29.7002 69.2002c-9.40039 -3.10059 -19.2002 -5.2002 -29.7002 -5.2002s-20.2998 2.09961 -29.7002 5.2002c18.2998 -17.5 29.7002 -42 29.7002 -69.2002c0 -53 -43 -96 -96 -96s-96 43 -96 96s43 96 96 96
c10.5 0 20.2998 -2.09961 29.7002 -5.2002c-18.2998 17.5 -29.7002 42 -29.7002 69.2002c0 53 43 96 96 96c10.5 0 20.2998 -2.09961 29.7002 -5.2002c-18.2998 17.5 -29.7002 42 -29.7002 69.2002c0 53 43 96 96 96s96 -43 96 -96
c0 -27.2002 -11.4004 -51.7002 -29.7002 -69.2002c9.40039 3.10059 19.2998 5.2002 29.7002 5.2002c53 0 96 -43 96 -96c0 -27.2998 -11.5 -51.7002 -29.7002 -69.2002c9.40039 3.10059 19.2998 5.2002 29.7002 5.2002zM288 416c-35.2998 0 -64 -28.7002 -64 -64
s28.7002 -64 64 -64s64 28.7002 64 64s-28.7002 64 -64 64zM317.7 122.8c-18.2998 17.5 -29.7002 42 -29.7002 69.2002s11.4004 51.7002 29.7002 69.2002c-9.40039 -3.10059 -19.2002 -5.2002 -29.7002 -5.2002s-20.2998 2.09961 -29.7002 5.2002
c18.2998 -17.5 29.7002 -41.9004 29.7002 -69.2002s-11.5 -51.7002 -29.7002 -69.2002c9.40039 3.10059 19.2998 5.2002 29.7002 5.2002s20.2998 -2.09961 29.7002 -5.2002zM96 -32c35.2998 0 64 28.7002 64 64s-28.7002 64 -64 64s-64 -28.7002 -64 -64s28.7002 -64 64 -64
zM192 128c35.2998 0 64 28.7002 64 64s-28.7002 64 -64 64s-64 -28.7002 -64 -64s28.7002 -64 64 -64zM288 -32c35.2998 0 64 28.7002 64 64s-28.7002 64 -64 64s-64 -28.7002 -64 -64s28.7002 -64 64 -64zM384 128c35.2998 0 64 28.7002 64 64s-28.7002 64 -64 64
s-64 -28.7002 -64 -64s28.7002 -64 64 -64zM480 -32c35.2998 0 64 28.7002 64 64s-28.7002 64 -64 64s-64 -28.7002 -64 -64s28.7002 -64 64 -64z" />
    <glyph glyph-name="biohazard" unicode="&#xf780;" horiz-adv-x="576" 
d="M288.1 352c-17.7998 0 -34.8994 -2.7002 -51.0996 -7.7002c-6.5 8.40039 -11.2002 18.4004 -13.0996 29.4004c20.1992 6.5 41.7998 10.2002 64.1992 10.2002c22.3008 0 43.8008 -3.60059 64 -10.1006c-2 -11 -6.59961 -20.8994 -13.0996 -29.3994
c-16.0996 4.89941 -33.2002 7.59961 -50.9004 7.59961zM288 207.9c17.7002 0 32 -14.3008 32 -32c0 -17.7002 -14.2998 -32 -32 -32s-32 14.2998 -32 32c0 17.6992 14.2998 32 32 32zM146.1 24.4004c-32.5996 30.5 -55.2998 71.3994 -63 117.399
c9.30078 5 19.6006 7.90039 30 7.90039c0.400391 0 0.800781 -0.200195 1.2002 -0.200195c6.2002 -40.2002 25.9004 -76 54.4004 -102.4c-5.40039 -9.09961 -12.9004 -17.0996 -22.6006 -22.6992zM574.7 171.4c3.59961 -10.6006 -0.5 -22.1006 -10.4004 -28
c-9.7998 -5.80078 -22.2998 -3.90039 -29.7998 4.69922c-7.7002 8.90039 -15.4004 15.5 -23.5996 20.3008c-22.3008 13.0996 -48.3008 16.5996 -73.2002 9.89941c-25.2998 -6.7998 -46.4004 -23.2002 -59.5 -46.2002c-26.9004 -47.5 -10.9004 -108.399 35.7002 -135.8
c8.19922 -4.7998 17.5996 -8.2998 29 -10.7002c10.8994 -2.2998 18.7998 -12.0996 18.6992 -23.3994c-0.199219 -11.5 -8 -21 -19.0996 -23.1006c-41.2998 -8.09961 -83.9004 -0.799805 -119.9 20.4004c-12.3994 7.2998 -24 16.4004 -34.6992 27.2998
c-10.6006 -10.7998 -22.2002 -20 -34.7002 -27.2998c-26.5 -15.5996 -56.5 -23.5996 -86.9004 -23.5996c-11 0 -22.0996 1.09961 -33.0996 3.19922c-11 2.2002 -19 11.9004 -19.1006 23.1006c-0.0996094 11.2998 7.7002 21.0996 18.7002 23.3994
c11.2998 2.40039 20.7998 5.90039 29 10.7002c46.6006 27.4004 62.6006 88.2998 35.7002 135.8c-13.0996 23 -34.2002 39.4004 -59.5 46.2002c-24.9004 6.7002 -50.9004 3.2002 -73.2002 -9.89941c-8.2002 -4.80078 -15.8994 -11.5 -23.5996 -20.3008
c-7.5 -8.59961 -20 -10.5996 -29.7002 -4.7998c-9.7002 5.90039 -13.9004 17.5 -10.2002 28.1006c13.7998 40.2998 41.2002 74.1992 77.2002 95.2998c12.2002 7.09961 25.5996 12.7002 40.0996 16.7002c-3.5 13.8994 -5.19922 27.3994 -5.19922 40.7998
c0 42.2002 15.0996 83.2002 42.5 115.5c7.39941 8.7002 19.7998 10.7998 29.5996 5.2002c9.7998 -5.5 14.2002 -17.3008 10.7002 -28c-3.60059 -11.2002 -5.40039 -21.4004 -5.40039 -31c0 -54.8008 43.6006 -99.3008 97.2998 -99.3008
c53.7002 0 97.3008 44.6006 97.3008 99.3008c0 9.59961 -1.80078 19.7998 -5.5 31.0996c-3.5 10.5 0.899414 22.2998 10.5996 27.9004c10 5.69922 22.4004 3.39941 29.7002 -5.2002c27.2998 -32.2998 42.3994 -73.2998 42.3994 -115.5
c0 -13.4004 -1.69922 -26.9004 -5.19922 -40.7998c14.5 -3.90039 27.8994 -9.5 40.0996 -16.7002c36 -21.2002 63.4004 -55 77.2002 -95.2998zM429.6 209.2c33.1006 8.89941 67.7002 4.2002 97.4004 -13c-11.9004 17.5 -27.4004 32.2002 -45.5996 42.8994
c-13.9004 8.2002 -29.2002 13.6006 -46.9004 16.7002l-18.5 3.2002l6.09961 17.7002c5.7002 16.7998 8.5 32.2998 8.5 47.5c0 21.0996 -4.59961 41.8994 -13.2998 60.8994c-0.399414 -72 -58.2998 -130.5 -129.3 -130.5c-71.0996 0 -128.9 58.5 -129.3 130.5
c-8.7002 -19 -13.2998 -39.7998 -13.2998 -60.8994c0 -15.2998 2.89941 -30.7998 8.59961 -47.5l6.09961 -17.7998l-18.5 -3.2002c-17.6992 -3.10059 -33 -8.60059 -46.8994 -16.7002c-18.2002 -10.7002 -33.7002 -25.4004 -45.6006 -42.9004
c19.8008 11.5 41.8008 17.4004 64.1006 17.4004c11 0 22.2002 -1.40039 33.2002 -4.40039c33.6992 -9 61.7998 -30.7998 79.0996 -61.2998c35.5 -62.5996 14.2998 -142.899 -47.2998 -179.1c-0.100586 0 -0.299805 -0.100586 -0.400391 -0.200195
c20.7998 1.7002 41.1006 8 59.2998 18.7002c14.1006 8.2998 27 19.7002 38.4004 33.7998l12.5 15.5l12.5 -15.4004c11.4004 -14.0996 24.2998 -25.5 38.4004 -33.7998c18.1992 -10.7002 38.5 -17 59.2998 -18.7002c-0.100586 0 -0.200195 0.100586 -0.400391 0.200195
c-61.5 36.1006 -82.7998 116.5 -47.2002 179.101c17.3008 30.5 45.3008 52.2998 79 61.2998zM461.9 149.4c0.299805 0 0.599609 0.0996094 0.899414 0.0996094c10.5 0 20.7998 -2.90039 30.2002 -8c-7.7002 -46 -30.4004 -86.9004 -63.0996 -117.4
c-9.60059 5.7002 -17 13.7002 -22.5 22.8008c28.5996 26.5 48.2998 62.2998 54.5 102.5z" />
    <glyph glyph-name="bacon" unicode="&#xf7e5;" horiz-adv-x="576" 
d="M566.93 343.6c12.7002 -12.5996 12.0703 -33.6494 -1.81934 -45.0498c-36.3701 -30.0098 -66.2402 -41.1494 -91.1104 -50.4102c-9.2002 -3.43945 -69 -19.3193 -98.7305 -98.1299c-8.93945 -23.5898 -46.7393 -134.689 -188.939 -187.689
c-15.8496 -5.90039 -27.3398 -10.1807 -40.9404 -20.2402c-5.15527 -3.81055 -11.5576 -6.08008 -18.4551 -6.08008h-0.0146484c-0.0273438 0 -0.0585938 -0.00390625 -0.0869141 -0.00390625c-8.42773 0 -16.0684 3.40137 -21.623 8.9043l-96.1396 95.4893
c-12.7002 12.6104 -12.0703 33.6104 1.79004 45.0605c36.3398 29.9795 66.21 41.0996 91.0693 50.3594c9.16992 3.41016 68.9707 19.2607 98.7207 98.0801c8.60938 22.8203 46.3496 134.591 188.979 187.73c15.8506 5.91016 27.3604 10.2002 41 20.2998
c5.14941 3.80859 11.5498 6.08008 18.4404 6.08008c8.46484 0 16.1426 -3.40137 21.7393 -8.91016zM32.4297 61.75l37.0205 -36.5098c23.7803 17.2402 43.9795 25 63.6396 32.3701c26.25 9.83984 51.0703 19.1094 85.9102 54c34.8398 34.8896 44.1201 59.6797 54 85.9492
c10.5596 28.3008 21.5596 57.5303 61.3398 97.3105s69.0703 50.7695 97.3506 61.3701c16.8193 6.2793 33.1191 12.5 51.8193 25.2793l-34.54 34.1104c-16.9697 -12.3701 -31.46 -17.7598 -48.1895 -24c-82.6504 -30.7803 -139.601 -86.8203 -169.261 -166.54l-0.929688 -2.5
c-15.1699 -40.1895 -47.6299 -92.9902 -116.1 -116.29c-24.3799 -9.04004 -50.4199 -18.7402 -82.0605 -44.5498zM461.43 277.65c24.3799 9.04004 50.46 18.7393 82.21 44.5898l-37 36.5098c-23.8096 -17.2695 -44.0195 -25.0498 -63.6699 -32.4199
c-26.3096 -9.81055 -51.0898 -19.0605 -86 -54c-34.9102 -34.9404 -44.1895 -59.7402 -54.0596 -86c-10.6006 -28.3496 -21.5703 -57.5898 -61.3506 -97.3496c-39.7793 -39.7607 -69.0293 -50.7305 -97.3096 -61.3301
c-16.8301 -6.31055 -33.0898 -12.4805 -51.7598 -25.2207l35.2295 -34.8301c15.8203 12.9502 30.4404 18.3906 47.3701 24.6904c82.5898 30.7695 139.55 86.8398 169.32 166.66l0.879883 2.35938c15.1396 40.1807 47.6104 92.9902 116.14 116.341z" />
    <glyph glyph-name="book-medical" unicode="&#xf7e6;" horiz-adv-x="448" 
d="M448 56c-0.03125 -10.0176 -6.1709 -18.5947 -14.9004 -22.2002c-3.59961 -16.0996 -4.39941 -45.5996 -0.399414 -65.7998h3.2998c6.62305 0 12 -5.37695 12 -12v-8c0 -6.62305 -5.37695 -12 -12 -12h-372c-35.3223 0 -64 28.6777 -64 64v368
c0 44.1533 35.8467 80 80 80h344c0.0205078 0 0.0400391 0.000976562 0.0605469 0.000976562c13.2119 0 23.9395 -10.7266 23.9395 -23.9395v-0.0615234v-368zM404.3 -32c-1.48828 10.5312 -2.25879 20.8281 -2.25879 31.7686c0 10.9395 0.770508 21.7002 2.25879 32.2314
h-340.3c-17.6611 0 -32 -14.3389 -32 -32s14.3389 -32 32 -32h340.3zM416 64v352h-336c-26.4922 0 -48 -21.5078 -48 -48v-312.88c9.36035 5.55957 20.3467 8.81738 32 8.87988h352zM152 208c-4.41504 0 -8 3.58496 -8 8v48c0 4.41504 3.58496 8 8 8h56v56
c0 4.41504 3.58496 8 8 8h48c4.41504 0 8 -3.58496 8 -8v-56h56c4.41504 0 8 -3.58496 8 -8v-48c0 -4.41504 -3.58496 -8 -8 -8h-56v-56c0 -4.41504 -3.58496 -8 -8 -8h-48c-4.41504 0 -8 3.58496 -8 8v56h-56z" />
    <glyph glyph-name="book-user" unicode="&#xf7e7;" horiz-adv-x="448" 
d="M240 224c-44.1299 0.0498047 -79.9502 35.8701 -80 80c0 44.1533 35.8467 80 80 80s80 -35.8467 80 -80s-35.8467 -80 -80 -80zM240 352c-26.4795 -0.0273438 -47.9727 -21.5205 -48 -48c0 -26.4922 21.5078 -48 48 -48s48 21.5078 48 48s-21.5078 48 -48 48zM448 56
c-0.03125 -10.0176 -6.1709 -18.5947 -14.9004 -22.2002c-3.59961 -16.0996 -4.39941 -45.5996 -0.399414 -65.7998h3.2998c6.62305 0 12 -5.37695 12 -12v-8c0 -6.62305 -5.37695 -12 -12 -12h-372c-35.3223 0 -64 28.6777 -64 64v368c0 44.1533 35.8467 80 80 80h344
c0.0205078 0 0.0400391 0.000976562 0.0605469 0.000976562c13.2119 0 23.9395 -10.7266 23.9395 -23.9395v-0.0615234v-368zM404.3 -32c-1.48828 10.5312 -2.25879 20.8281 -2.25879 31.7686c0 10.9395 0.770508 21.7002 2.25879 32.2314h-340.3
c-17.6611 0 -32 -14.3389 -32 -32s14.3389 -32 32 -32h340.3zM416 64v352h-336c-26.4922 0 -48 -21.5078 -48 -48v-312.88c9.36035 5.55957 20.3467 8.81738 32 8.87988h352zM150.41 96c-19.4102 0 -38.4102 13 -38.4102 38.4102c0 40.5898 37.3096 73.5898 83.1904 73.5898
c21.5 -2.41992 22.5996 -8 44.8096 -8s23.3096 5.62012 44.8096 8c45.8809 0 83.1904 -33 83.1904 -73.5898c0 -25.4102 -19 -38.4102 -38.4102 -38.4102h-179.18zM195.19 176c-28.1904 0 -51.1904 -18.6602 -51.1904 -41.5898
c0 -3.21973 -0.410156 -6.41016 6.41016 -6.41016h179.18c6.82031 0 6.41016 3.19043 6.41016 6.41016c0 22.9297 -23 41.5898 -51.1904 41.5898c-4.65918 0 -18.4297 -8 -44.8096 -8s-40.1504 8 -44.8096 8z" />
    <glyph glyph-name="brackets" unicode="&#xf7e9;" horiz-adv-x="448" 
d="M120 416c4.41504 0 8 -3.58496 8 -8v-16c0 -4.41504 -3.58496 -8 -8 -8h-72c-8.83105 0 -16 -7.16895 -16 -16v-352c0 -8.83105 7.16895 -16 16 -16h72c4.41504 0 8 -3.58496 8 -8v-16c0 -4.41504 -3.58496 -8 -8 -8h-72c-26.4922 0 -48 21.5078 -48 48v352
c0 26.4922 21.5078 48 48 48h72zM400 416c26.4922 0 48 -21.5078 48 -48v-352c0 -26.4922 -21.5078 -48 -48 -48h-72c-4.41504 0 -8 3.58496 -8 8v16c0 4.41504 3.58496 8 8 8h72c8.83105 0 16 7.16895 16 16v352c0 8.83105 -7.16895 16 -16 16h-72
c-4.41504 0 -8 3.58496 -8 8v16c0 4.41504 3.58496 8 8 8h72z" />
    <glyph glyph-name="brackets-curly" unicode="&#xf7ea;" horiz-adv-x="576" 
d="M571.31 203.31c2.89453 -2.89551 4.68555 -6.89844 4.68555 -11.3115c0 -4.41406 -1.79102 -8.41211 -4.68555 -11.3076l-45.25 -45.25c-8.68848 -8.68945 -14.0596 -20.7041 -14.0596 -33.9502v-85.4902c0 -26.4922 -21.5078 -48 -48 -48h-72
c-4.41504 0 -8 3.58496 -8 8v16c0 4.41504 3.58496 8 8 8h72c8.83105 0 16 7.16895 16 16v85.4805c0 22.0801 8.9541 42.0977 23.4404 56.5791l33.9395 33.9404l-33.9395 33.9404c-14.4863 14.4814 -23.4404 34.499 -23.4404 56.5791v85.4805c0 8.83105 -7.16895 16 -16 16
h-72c-4.41504 0 -8 3.58496 -8 8v16c0 4.41504 3.58496 8 8 8h72c26.4922 0 48 -21.5078 48 -48v-85.4902c0 -13.2461 5.37109 -25.2607 14.0596 -33.9502zM184 416c4.41504 0 8 -3.58496 8 -8v-16c0 -4.41504 -3.58496 -8 -8 -8h-72c-8.83105 0 -16 -7.16895 -16 -16
v-85.4805c0 -22.0801 -8.9541 -42.0977 -23.4404 -56.5791l-33.9395 -33.9404l33.9395 -33.9404c14.4863 -14.4814 23.4404 -34.499 23.4404 -56.5791v-85.4805c0 -8.83105 7.16895 -16 16 -16h72c4.41504 0 8 -3.58496 8 -8v-16c0 -4.41504 -3.58496 -8 -8 -8h-72
c-26.4922 0 -48 21.5078 -48 48v85.4902c0 13.2461 -5.37109 25.2607 -14.0596 33.9502l-45.25 45.25c-2.89453 2.89551 -4.68555 6.89844 -4.68555 11.3115c0 4.41406 1.79102 8.41211 4.68555 11.3076l45.25 45.25c8.68848 8.68945 14.0596 20.7041 14.0596 33.9502
v85.4902c0 26.4922 21.5078 48 48 48h72z" />
    <glyph glyph-name="bread-loaf" unicode="&#xf7eb;" horiz-adv-x="640" 
d="M400 416c132.55 0 240 -71.6299 240 -160c0 -35.3496 -30.8604 -64 -64 -64v-192c0 -17.6611 -14.3389 -32 -32 -32h-448c-17.6611 0 -32 14.3389 -32 32v192c-33.1396 0 -64 28.6504 -64 64c0 88.3701 107.45 160 240 160h160zM384 0v224h36c15.4404 0 28 14.3604 28 32
c0 69.3799 -95.25 128 -208 128s-208 -58.6201 -208 -128c0 -17.6396 16.5596 -32 32 -32h32v-224h288zM544 0v192h-128v-192h128zM580 224c15.4404 0 28 14.3604 28 32c0 69.3799 -95.25 128 -208 128h-16.4404c58.4404 -29.1797 96.4404 -75.5703 96.4404 -128
c-0.0410156 -11.5723 -3.08105 -22.5273 -8.32031 -32h108.32z" />
    <glyph glyph-name="bread-slice" unicode="&#xf7ec;" horiz-adv-x="576" 
d="M288 448c172.28 0 288 -90.8799 288 -175.75c0 -33.9805 -26.5898 -60.5801 -64 -66.5801v-223.45c0 -25.4893 -22.4404 -46.2197 -50 -46.2197h-348c-27.5596 0 -50 20.7305 -50 46.2197v223.45c-37.4102 5.9502 -64 32.5801 -64 66.5801
c0 84.8701 115.72 175.75 288 175.75zM496 236.44c27.3799 0 48 15.3896 48 35.8096c0 58.75 -91.1602 143.75 -256 143.75s-256 -85 -256 -143.75c0 -20.4199 20.6201 -35.8096 48 -35.8096h16v-254.221c0 -7.7002 8.25 -14.2197 18 -14.2197h348
c9.75 0 18 6.51953 18 14.2197v254.221h16z" />
    <glyph glyph-name="burrito" unicode="&#xf7ed;" 
d="M512 325c0 -0.0517578 -0.0380859 -0.164062 -0.0380859 -0.21582c0 -10.9395 -2.39648 -21.3223 -6.69238 -30.6543c4.30566 -9.85352 6.79395 -20.7539 6.79395 -32.1865c0 -33.0059 -19.9092 -61.3984 -48.3633 -73.8135l-218.15 -218.13
c-20.9971 -20.998 -50.0293 -33.9922 -82.041 -33.9922s-61.0117 12.9941 -82.0088 33.9922l-47.5 47.5c-20.998 20.9971 -33.9922 50.0293 -33.9922 82.041s12.9941 61.0117 33.9922 82.0088l218.12 218.15c12.4141 28.4541 40.8291 48.2637 73.835 48.2637
c11.4326 0 22.3115 -2.38867 32.165 -6.69434c9.37695 4.29785 19.8516 6.73047 30.833 6.73047c33.2871 0 61.4736 -22.0107 70.7871 -52.2598c30.2236 -9.33203 52.2188 -37.4785 52.2598 -70.7402zM267.55 369.87l-210.95 -210.97
c-8.37891 -8.43359 -14.9307 -18.627 -19.1094 -30c22.5654 -10.6777 47.9326 -16.79 74.5098 -16.9004c97 0 176 78.9502 176 176c-0.0205078 29.5078 -7.48438 57.4951 -20.4502 81.8701zM222.92 -7.38965l211.08 211.04
c-24.5586 12.7158 -52.5439 19.9922 -82.0859 19.9922c-15.2725 0 -30.0996 -1.9209 -44.2539 -5.53223c-28.7998 -80.3604 -105.521 -138.11 -195.66 -138.11c-28.1543 0.0244141 -55.1484 5.73633 -79.6504 15.9004c0.803711 -21.7109 9.91113 -41.373 24.25 -55.7705
l47.5303 -47.5195c15.2051 -15.2041 36.2275 -24.6133 59.4072 -24.6133c23.1787 0 44.1777 9.40918 59.3828 24.6133zM480 262c-0.0292969 12.6533 -4.90332 24.1992 -12.8604 32.8398c7.92871 7.61035 12.8574 18.3135 12.8604 30.1602
c0.000976562 0.0888672 0.0341797 0.172852 0.0341797 0.261719c0 23.0371 -18.7031 41.7402 -41.7402 41.7402c-2.76172 0 -5.46191 -0.269531 -8.07422 -0.782227c0.493164 2.53027 0.759766 5.1123 0.780273 7.78027
c0 0.0195312 -0.00195312 0.0488281 -0.00195312 0.0693359c0 23.1465 -18.792 41.9395 -41.9395 41.9395c-11.8652 0 -22.5859 -4.9375 -30.2188 -12.8691c-8.64062 7.95703 -20.1865 12.8311 -32.8398 12.8604c-15.3555 -0.0800781 -29.0039 -7.3252 -37.7695 -18.5996
c20.4795 -32.8809 31.7695 -70.2607 31.7695 -109.4c-0.0673828 -12.124 -1.17383 -23.8408 -3.24023 -35.3896c49.5098 8.30957 101.74 -1.4707 144.84 -28.1904c11.0605 8.91992 18.4004 22.2402 18.4004 37.5801z" />
    <glyph glyph-name="chart-scatter" unicode="&#xf7ee;" 
d="M504 32c4.41504 0 8 -3.58496 8 -8v-16c0 -4.41504 -3.58496 -8 -8 -8h-488c-8.83105 0 -16 7.16895 -16 16v360c0 4.41504 3.58496 8 8 8h16c4.41504 0 8 -3.58496 8 -8v-344h472zM160 136c-13.2461 0 -24 10.7539 -24 24s10.7539 24 24 24s24 -10.7539 24 -24
s-10.7539 -24 -24 -24zM416 296c-13.2461 0 -24 10.7539 -24 24s10.7539 24 24 24s24 -10.7539 24 -24s-10.7539 -24 -24 -24zM192 296c-13.2461 0 -24 10.7539 -24 24s10.7539 24 24 24s24 -10.7539 24 -24s-10.7539 -24 -24 -24zM384 136c-13.2461 0 -24 10.7539 -24 24
s10.7539 24 24 24s24 -10.7539 24 -24s-10.7539 -24 -24 -24zM288 200c-13.2461 0 -24 10.7539 -24 24s10.7539 24 24 24s24 -10.7539 24 -24s-10.7539 -24 -24 -24z" />
    <glyph glyph-name="cheese" unicode="&#xf7ef;" 
d="M299.83 416c118.17 -6.2002 212.17 -104.05 212.17 -223.87v-192.13c0 -17.6611 -14.3389 -32 -32 -32h-448c-17.6611 0 -32 14.3389 -32 32v192.13l278.7 216.87c5.40039 4.29004 12.2363 6.90039 19.6396 7h1.49023zM480 0v160.11h-448v-160.11h448zM52.1299 192.13
h427.87c0 102.09 -79.5801 186.25 -181.28 191.87z" />
    <glyph glyph-name="cheese-swiss" unicode="&#xf7f0;" 
d="M176 128.1c26.4922 0 48 -21.5078 48 -48c0 -26.4912 -21.5078 -48 -48 -48s-48 21.5088 -48 48c0 26.4922 21.5078 48 48 48zM176 64.0996c8.83105 0 16 7.12891 16 15.96v0.0400391c0 8.83105 -7.16895 16 -16 16s-16 -7.16895 -16 -16c0 -8.83008 7.16895 -16 16 -16z
M299.83 416c118.17 -6.2002 212.17 -104.05 212.17 -223.87v-192.13c0 -17.6611 -14.3389 -32 -32 -32h-448c-17.6611 0 -32 14.3389 -32 32v192.13l278.7 216.87c5.40039 4.29004 12.2363 6.90039 19.6396 7h1.49023zM240 320.21c-8.83105 0 -16 -7.16895 -16 -16
s7.16895 -16 16 -16s16 7.16895 16 16s-7.16895 16 -16 16zM480 0v160.11h-66.9404c-6.49707 -18.6367 -24.2061 -32.0234 -45.0459 -32.0234c-20.8389 0 -38.5762 13.3867 -45.0732 32.0234h-290.94v-160.11h448zM352 176.12c0 -8.83105 7.16895 -16 16 -16
s16 7.16895 16 16c0 8.83008 -7.16895 16 -16 16s-16 -7.16992 -16 -16zM413.06 192.12l66.9404 0.00976562c0 102.09 -79.5801 186.25 -181.32 191.83l-44 -34.2598c19.3125 -6.17383 33.3076 -24.2275 33.3076 -45.5762c0 -26.4316 -21.459 -47.8906 -47.8906 -47.8906
c-25.4219 0 -46.2441 19.8525 -47.7969 44.8867l-140.17 -109h270.811c6.49707 18.6357 24.2061 32.0234 45.0459 32.0234c20.8389 0 38.5762 -13.3877 45.0732 -32.0234z" />
    <glyph glyph-name="clinic-medical" unicode="&#xf7f2;" horiz-adv-x="576" 
d="M573.48 228.08c1.54199 -1.30859 2.51367 -3.26465 2.51367 -5.44336c0 -1.59082 -0.522461 -3.06055 -1.4043 -4.24707l-14.1895 -17.5c-1.25293 -1.54102 -3.16602 -2.52051 -5.30566 -2.52051c-1.62695 0 -3.12109 0.570312 -4.29492 1.52051l-38.7998 31.29v-279.18
c0 -8.83105 -7.16895 -16 -16 -16h-416c-8.83105 0 -16 7.16895 -16 16v279.28l-38.6699 -31.1904c-1.17285 -0.953125 -2.6709 -1.53125 -4.29883 -1.53125c-2.13965 0 -4.05078 0.987305 -5.30078 2.53125l-14.2002 17.4902
c-0.950195 1.1582 -1.52832 2.64062 -1.52832 4.25391c0 2.12207 0.988281 4.01562 2.52832 5.24609l262.88 211.92c6.16406 5.00391 14.0684 8.00391 22.6191 8.00391s16.4062 -3 22.5703 -8.00391zM480 -32v289l-187.89 151.48
c-1.14355 0.935547 -2.61328 1.49707 -4.20508 1.49707c-1.59082 0 -3.05176 -0.561523 -4.19531 -1.49707l-187.71 -151.4v-289.08h384zM256 232c0 4.41504 3.58496 8 8 8h48c4.41504 0 8 -3.58496 8 -8v-56h56c4.41504 0 8 -3.58496 8 -8v-48
c0 -4.41504 -3.58496 -8 -8 -8h-56v-56c0 -4.41504 -3.58496 -8 -8 -8h-48c-4.41504 0 -8 3.58496 -8 8v56h-56c-4.41504 0 -8 3.58496 -8 8v48c0 4.41504 3.58496 8 8 8h56v56z" />
    <glyph glyph-name="clipboard-user" unicode="&#xf7f3;" horiz-adv-x="384" 
d="M336 384c26.4922 0 48 -21.5078 48 -48v-352c0 -26.4922 -21.5078 -48 -48 -48h-288c-26.4922 0 -48 21.5078 -48 48v352c0 26.4922 21.5078 48 48 48h88.5801c-0.37793 2.63184 -0.574219 5.26562 -0.580078 8c0 30.9072 25.0928 56 56 56s56 -25.0928 56 -56
c-0.00585938 -2.73438 -0.202148 -5.36816 -0.580078 -8h88.5801zM192 416c-13.2461 0 -24 -10.7539 -24 -24s10.7539 -24 24 -24s24 10.7539 24 24s-10.7539 24 -24 24zM352 -16v352c0 8.83105 -7.16895 16 -16 16h-48v-20c0 -6.62305 -5.37695 -12 -12 -12h-168
c-6.62305 0 -12 5.37695 -12 12v20h-48c-8.83105 0 -16 -7.16895 -16 -16v-352c0 -8.83105 7.16895 -16 16 -16h288c8.83105 0 16 7.16895 16 16zM236.81 112c45.8809 0 83.1904 -33 83.1904 -73.5898c0 -25.4102 -19 -38.4102 -38.4102 -38.4102h-179.18
c-19.4102 0 -38.4102 13 -38.4102 38.4102c0 40.5898 37.3096 73.5898 83.1904 73.5898c21.5 -2.41992 22.5996 -8 44.8096 -8s23.3096 5.62012 44.8096 8zM281.59 32c6.82031 0 6.41016 3.19043 6.41016 6.41016c0 22.9297 -23 41.5898 -51.1904 41.5898
c-4.65918 0 -18.4297 -8 -44.8096 -8s-40.1504 8 -44.8096 8c-28.1904 0 -51.1904 -18.6602 -51.1904 -41.5898c0 -3.21973 -0.410156 -6.41016 6.41016 -6.41016h179.18zM192 128c-44.1299 0.0498047 -79.9502 35.8701 -80 80c0 44.1533 35.8467 80 80 80
s80 -35.8467 80 -80s-35.8467 -80 -80 -80zM192 256c-26.4795 -0.0273438 -47.9727 -21.5205 -48 -48c0 -26.4922 21.5078 -48 48 -48s48 21.5078 48 48s-21.5078 48 -48 48z" />
    <glyph glyph-name="comment-alt-medical" unicode="&#xf7f4;" 
d="M448 448c35.3223 0 64 -28.6777 64 -64v-288c0 -35.3223 -28.6777 -64 -64 -64h-144l-124.87 -93.6299c-1.97168 -1.47949 -4.42871 -2.36426 -7.08008 -2.37012h-0.0498047c-6.62305 0 -12 5.37695 -12 12v84h-96c-35.3223 0 -64 28.6777 -64 64v288
c0 35.3223 28.6777 64 64 64h384zM480 96v288c0 17.6611 -14.3389 32 -32 32h-384c-17.6611 0 -32 -14.3389 -32 -32v-288c0 -17.6611 14.3389 -32 32 -32h128v-76l92.7998 69.5996l8.54004 6.40039h154.66c17.6611 0 32 14.3389 32 32zM344 272c4.41504 0 8 -3.58496 8 -8
v-48c0 -4.41504 -3.58496 -8 -8 -8h-56v-56c0 -4.41504 -3.58496 -8 -8 -8h-48c-4.41504 0 -8 3.58496 -8 8v56h-56c-4.41504 0 -8 3.58496 -8 8v48c0 4.41504 3.58496 8 8 8h56v56c0 4.41504 3.58496 8 8 8h48c4.41504 0 8 -3.58496 8 -8v-56h56z" />
    <glyph glyph-name="comment-medical" unicode="&#xf7f5;" 
d="M344 240c4.41504 0 8 -3.58496 8 -8v-48c0 -4.41504 -3.58496 -8 -8 -8h-56v-56c0 -4.41504 -3.58496 -8 -8 -8h-48c-4.41504 0 -8 3.58496 -8 8v56h-56c-4.41504 0 -8 3.58496 -8 8v48c0 4.41504 3.58496 8 8 8h56v56c0 4.41504 3.58496 8 8 8h48
c4.41504 0 8 -3.58496 8 -8v-56h56zM256 416c141.38 0 256 -93.1201 256 -208s-114.62 -208 -256 -208c-0.0332031 0 -0.0800781 0.0673828 -0.114258 0.0673828c-32.3135 0 -63.4697 4.99805 -92.7354 14.2627c-29.1504 -20.6104 -77.6406 -46.3301 -139.15 -46.3301
c-0.0107422 0 -0.0205078 0.00683594 -0.03125 0.00683594c-13.2461 0 -24 10.7539 -24 24c0 6.38574 2.49902 12.1914 6.57129 16.4932c0.459961 0.44043 31.46 33.7803 46.3604 73.2305c-33.04 35.0391 -52.9004 78.7197 -52.9004 126.27c0 114.88 114.62 208 256 208z
M256 32c123.51 0 224 79 224 176s-100.49 176 -224 176s-224 -79 -224 -176c0 -37.5996 15.2803 -73.6699 44.1797 -104.31l13.7207 -14.5605l-7.06055 -18.71c-11 -29.1104 -28.8398 -54.4199 -40.8398 -69.5498c44.0996 4.25 79.6299 23.2998 102.63 39.5898l13 9.17969
l15.1602 -4.7998c26.209 -8.30078 54.123 -12.8398 83.0635 -12.8398h0.146484z" />
    <glyph glyph-name="croissant" unicode="&#xf7f6;" 
d="M508.1 272.34c16.0605 -42.3398 -19.7598 -87.0703 -65.1895 -79.4697l-87.2402 14.54c-8.21094 -8.74414 -19.1064 -14.9619 -31.3203 -17.4102c-2.73926 -10.0869 -8.04004 -19.1455 -15.1797 -26.3701l-24.7695 -24.7695
c-7.20898 -7.12305 -16.2568 -12.4023 -26.3301 -15.1104c-2.44531 -12.2617 -8.68652 -23.1982 -17.4707 -31.4297l14.54 -87.2305c7.5 -45.2295 -36.96 -81.2998 -79.5 -65.1797c-30.6396 11.6094 -57.0996 30.0898 -78.8799 52.8096
c-2.30957 -0.160156 -2.21973 -1.31934 -11.3994 -0.160156c-16.2852 2.125 -30.5762 10.7012 -40.1104 23.1309c-42.0596 55.1299 -54.5996 125.609 -36.8398 191.13c-5.31348 8.92676 -8.39844 19.3916 -8.39844 30.5254c0 4.99023 0.613281 9.83887 1.76855 14.4746
c23.748 95.3926 99.0117 170.646 194.41 194.38c19.0293 4.7998 33.6699 -0.780273 43.9199 -6.60059c18.5322 5.30664 38.0674 8.24805 58.2598 8.40039c50.2402 -0.0976562 96.7793 -17.0078 133.97 -45.2598c12.4336 -9.53125 21.0107 -23.8232 23.1299 -40.1104
c0.305664 -2.43457 0.462891 -4.79785 0.462891 -7.31543c0 -1.61719 -0.0654297 -3.21973 -0.192383 -4.80469c22.5 -21.6602 40.8496 -47.8301 52.3594 -78.1699zM298.37 416c-11.5518 -0.118164 -22.75 -1.32129 -33.6904 -3.50977
c1.05078 -2.32031 2.58008 -4.31055 3.35059 -6.79004l56 -182c0.709961 -2.28027 8.35938 5.05957 9.91016 7.05957l84 107c8.46973 10.7305 8.91992 28.9199 -5 39.54c-31.8086 24.1562 -71.6074 38.6143 -114.57 38.7002zM35.2598 182.89
c-2.01562 -11.0264 -2.98242 -22.377 -2.98242 -33.9824c0 -42.8066 14.3311 -82.292 38.4531 -113.917c7.96973 -10.4004 25.4697 -16.0498 39.5498 -5l107 84c1.97949 1.5498 9.33008 9.20996 7.06934 9.89941l-182 56c-2.42383 0.847656 -4.81836 1.8623 -7.08984 3z
M187 -30.1699c19.5596 -7.41016 40.0498 9.16992 36.5703 29.9902l-11.5703 69.4199l-82 -64.3203c16.5166 -15.0059 35.7949 -26.959 57 -35.0898zM286.56 186.25c5.05957 5.06738 8.16113 12.0645 8.16113 19.7832c0 2.85156 -0.426758 5.60352 -1.2207 8.19727l-56 182
c-3.52344 11.4336 -14.1611 19.751 -26.7451 19.751c-2.3291 0 -4.5918 -0.285156 -6.75488 -0.821289c-83.9834 -20.8896 -150.241 -87.1396 -171.14 -171.12c-0.544922 -2.17773 -0.834961 -4.4375 -0.834961 -6.78223c0 -12.5889 8.32422 -23.248 19.7646 -26.7676
l182 -56c13.5996 -4.15039 24 3 28 7zM448.19 224.39c20.6504 -3.43945 37.4795 16.8506 29.9893 36.6104c-8.14355 21.1953 -20.0918 40.4707 -35.0801 57l-64.3398 -82z" />
    <glyph glyph-name="crutch" unicode="&#xf7f7;" 
d="M507.31 262.29c2.89453 -2.89551 4.68555 -6.89844 4.68555 -11.3125c0 -4.41309 -1.79102 -8.41211 -4.68555 -11.3076l-42.1699 -42.1797c-2.89551 -2.89746 -6.90039 -4.69043 -11.3164 -4.69043s-8.41699 1.79297 -11.3135 4.69043l-22.6299 22.6299l-112.76 -112.72
c-10.4014 -10.4238 -23.7207 -17.9746 -38.5605 -21.4004l-124.72 -28.79l-118.87 -118.84c-1.44727 -1.44727 -3.44922 -2.34277 -5.65625 -2.34277c-2.20605 0 -4.20508 0.895508 -5.65332 2.34277l-11.3203 11.3203c-1.44727 1.44727 -2.3418 3.44922 -2.3418 5.65527
c0 2.20703 0.894531 4.20605 2.3418 5.6543l118.86 118.82l28.7998 124.729c3.41895 14.8525 10.9629 28.1885 21.3799 38.6104l112.74 112.72l-22.6299 22.6299c-2.89746 2.89648 -4.69043 6.90137 -4.69043 11.3174s1.79297 8.41699 4.69043 11.3125l42.2002 42.1504
c2.89551 2.89355 6.89844 4.68457 11.3115 4.68457c4.41406 0 8.41211 -1.79102 11.3076 -4.68457zM284.5 130l21.4404 21.4297l-90.5107 90.5107l-21.4297 -21.4209c-6.24805 -6.24023 -10.7705 -14.2344 -12.8096 -23.1396l-24.1006 -104.27l104.29 24.0801
c8.89746 2.04297 16.8848 6.56445 23.1201 12.8096zM328.57 174.08l68.6797 68.6895l-90.5 90.5l-68.6904 -68.6797zM453.82 231.45l19.5498 19.5498l-158.37 158.37l-19.5703 -19.5498z" />
    <glyph glyph-name="crutches" unicode="&#xf7f8;" horiz-adv-x="640" 
d="M635.31 262.29c2.89453 -2.89551 4.68555 -6.89844 4.68555 -11.3125c0 -4.41309 -1.79102 -8.41211 -4.68555 -11.3076l-42.1699 -42.1797c-2.89551 -2.89746 -6.90039 -4.69043 -11.3164 -4.69043s-8.41699 1.79297 -11.3135 4.69043l-22.6396 22.6299l-112.75 -112.72
c-10.4014 -10.4238 -23.7207 -17.9746 -38.5605 -21.4004l-124.72 -28.79l-118.87 -118.84c-1.44727 -1.44727 -3.44922 -2.34277 -5.65625 -2.34277c-2.20605 0 -4.20508 0.895508 -5.65332 2.34277l-11.3203 11.3203c-1.44727 1.44727 -2.3418 3.44922 -2.3418 5.65527
c0 2.20703 0.894531 4.20605 2.3418 5.6543l118.86 118.82l28.7998 124.729c3.41895 14.8525 10.9629 28.1885 21.3799 38.6104l112.74 112.72l-22.6299 22.6299c-2.89746 2.89648 -4.69043 6.90137 -4.69043 11.3174s1.79297 8.41699 4.69043 11.3125l42.2002 42.1504
c2.89551 2.89355 6.89844 4.68457 11.3115 4.68457c4.41406 0 8.41211 -1.79102 11.3076 -4.68457zM412.5 130l21.4404 21.4297l-90.5107 90.5107l-21.4297 -21.4209c-6.24512 -6.24316 -10.7666 -14.2363 -12.8096 -23.1396l-24.1006 -104.27l104.28 24.0801
c8.90137 2.04004 16.8926 6.5625 23.1299 12.8096zM456.57 174.08l68.6797 68.6895l-90.5 90.5l-68.6904 -68.6797zM581.82 231.45l19.5498 19.5498l-158.37 158.37l-19.5703 -19.5498zM220 95.9297c-5.52344 3.21777 -10.5547 7.0332 -15.1201 11.4502l-112.729 112.76
l-22.6406 -22.6299c-2.89648 -2.89648 -6.90137 -4.68945 -11.3174 -4.68945s-8.41602 1.79297 -11.3125 4.68945l-42.1699 42.1807c-2.89355 2.89551 -4.68457 6.89844 -4.68457 11.3115c0 4.41406 1.79102 8.41211 4.68457 11.3076l181 181
c2.89551 2.89453 6.89844 4.68555 11.3125 4.68555c4.41309 0 8.41211 -1.79102 11.3076 -4.68555l42.1797 -42.1699c2.89746 -2.89551 4.69043 -6.90039 4.69043 -11.3164s-1.79297 -8.41699 -4.69043 -11.3135l-22.6299 -22.6299l69.4902 -69.4795l-20.6201 -20.6104
c-0.679688 -0.679688 -1.20996 -1.46973 -1.87012 -2.16016l-69.6299 69.6201l-90.5 -90.5l112.67 -112.8c0.110352 -0.110352 0.259766 -0.169922 0.370117 -0.280273zM58.1797 231.43l158.37 158.391l-19.5498 19.5498l-158.37 -158.37zM413 57.6299l96.6299 -96.6602
c1.44727 -1.44727 2.34277 -3.44922 2.34277 -5.65625c0 -2.20605 -0.895508 -4.20508 -2.34277 -5.65332l-11.3203 -11.3203c-1.44727 -1.44727 -3.44922 -2.3418 -5.65527 -2.3418c-2.20703 0 -4.20605 0.894531 -5.6543 2.3418l-110.24 110.24l27 6.21973
c3.15039 0.730469 6.16992 1.83008 9.24023 2.83008z" />
    <glyph glyph-name="debug" unicode="&#xf7f9;" 
d="M130.25 136.16c-2.73047 -0.400391 -16.1201 -0.0302734 -18.0898 13.5498c-0.107422 0.746094 -0.145508 1.49414 -0.145508 2.26953c0 8.06152 5.97559 14.7393 13.7354 15.8408l50.25 7.17969v29.1201l32 -32v-28.1201c0.0273438 -26.4795 21.5205 -47.9727 48 -48
c8.06543 0.0546875 15.71 2.16211 22.3398 5.78027l23.29 -23.29c-12.8877 -9.08984 -28.6777 -14.4785 -45.6299 -14.4902c-25.1904 0 -47.3799 11.8799 -62 30.0703l-41.1201 -27.3799c-9.32031 -6.20996 -18.7803 -0.660156 -22.1895 4.42969
c-1.69434 2.53809 -2.70703 5.59277 -2.70703 8.87012c0 5.55371 2.83594 10.4502 7.13672 13.3193l44.1104 29.4004c-1.84473 6.36621 -2.92383 13.085 -3.10059 20zM256 440c137 0 248 -111 248 -248s-111 -248 -248 -248s-248 111 -248 248s111 248 248 248zM256 -24
c53.7861 0 103.104 19.8506 140.81 52.5596l-304.25 304.25c-32.709 -37.7061 -52.5596 -87.0234 -52.5596 -140.81c0 -119.1 96.9004 -216 216 -216zM211.84 258.78l92.1602 -92.1602v73.3799c-0.0175781 26.4766 -21.4971 48.002 -47.9775 48.002
c-19.8301 0 -36.8672 -12.0508 -44.1826 -29.2217zM419.44 51.1904c32.709 37.7061 52.5596 87.0234 52.5596 140.81c0 119.1 -96.9004 216 -216 216c-53.7861 0 -103.104 -19.8506 -140.81 -52.5596l73.3496 -73.3604c14.0596 22.6602 38.8203 37.9199 67.46 37.9199
c25.1904 0 47.3799 -11.8799 62.0498 -30.0498l41.0703 27.3799c2.53809 1.69336 5.61914 2.7002 8.89648 2.7002c8.83008 0 16 -7.16992 16 -16.001c0 -5.55371 -2.83594 -10.4502 -7.13672 -13.3193l-44.1104 -29.4004c1.82031 -6.56934 3.23047 -10.6895 3.23047 -28
l45.75 6.55078c0.796875 0.12207 1.58008 0.18457 2.41016 0.18457c8.83105 0 16 -7.16992 16 -16c0 -8.12305 -6.06543 -14.8398 -13.9102 -15.8652l-50.25 -7.17969v-26l50.25 -7.16016c7.75977 -1.10156 13.752 -7.7627 13.752 -15.8252
c0 -0.775391 -0.0546875 -1.53809 -0.162109 -2.28418c-1.96973 -13.5703 -15.3594 -13.9707 -18.0898 -13.5703l-45.8799 6.5498c-0.140625 -2.42578 -0.40918 -4.80859 -0.799805 -7.16016z" />
    <glyph glyph-name="disease" unicode="&#xf7fa;" 
d="M463.92 262.94c27.6797 -9.41016 46.0801 -31.5205 47.9297 -57.7402c1.78027 -25.3604 -12.5596 -48.96 -37.4297 -61.5801l-58.1299 -29.4697c-11.7197 -5.94043 -19.1904 -15.9902 -20 -26.8604l-4.44043 -57.46
c-1.7793 -23.3496 -16.8398 -43.6904 -40.2793 -54.3496c-10.5361 -4.77734 -22.2998 -7.48047 -34.6133 -7.48047h-0.0966797c-0.147461 -0.000976562 -0.357422 0.0400391 -0.503906 0.0400391c-17.8984 0 -34.4541 5.7998 -47.8867 15.6201l-50.8994 37.9102
c-11 8.14941 -26.0303 11.1992 -40.5703 8.06934l-65.6396 -14.1396c-30.8701 -6.65039 -62.21 3.94043 -80.0605 27c-14.75 19.0703 -17.1797 43.1104 -6.5 64.3301l26.6602 52.9297c4.96973 9.83008 3.90039 20.7305 -2.91016 29.9199l-36.1201 48.6904
c-14.6895 19.7695 -16.4297 44.21 -4.75 65.3994c13.75 24.8906 42.8701 39.4209 74.1807 37l67.3799 -5.21973c14.6201 -1.24023 28.9297 3.78027 38.1201 13.1602l43.25 44.29c19.5596 20 49.6895 27.6797 78.3896 20.1797
c26.04 -6.83008 45.3203 -24.8594 51.5996 -48.2393l15 -56.1602c2.90039 -10.9502 12.4004 -20.1201 25.4004 -24.5303zM459.92 172.15c13.4004 6.7998 20.9004 18.3096 20.0703 30.7793c-0.930664 13.3301 -10.7803 24.4307 -26.3105 29.6904l-62.8398 21.3203
c-23.1494 7.85938 -40.3701 25.2598 -46.0898 46.5898l-15 56.1396c-3.21973 12.1299 -14 21.6797 -28.75 25.54c-17.4502 4.58984 -36.1396 0.0400391 -47.5195 -11.5996l-43.2402 -44.2607c-15.7207 -16.0996 -39.1904 -24.5801 -63.5 -22.71l-67.3799 5.2207
c-18.3408 1.30957 -35.9307 -6.59082 -43.6807 -20.5908c-3.25 -5.89941 -7.2793 -17.7393 2.44043 -30.8291l36.0996 -48.6904c14.0898 -19.0098 16.25 -42.6904 5.78027 -63.4102l-26.5596 -52.8994c-6.93066 -13.79 -0.959961 -24.9404 3.21973 -30.3408
c7.84961 -10.1699 25 -20.3594 48 -15.3594l65.5996 14.1895c5.73926 1.24316 11.6377 1.90039 17.7461 1.90039h0.09375c17.5605 0 34.9004 -5.44043 48.5605 -15.5898l50.9395 -37.9307c14.1201 -10.5293 34.0605 -12.3398 50.7803 -4.70996
c6.08984 2.78027 20.3701 11.0107 21.6201 27.6699l4.38965 57.4102c1.65039 22.1504 15.6504 41.9502 37.4004 53zM160 256c17.6611 0 32 -14.3389 32 -32s-14.3389 -32 -32 -32s-32 14.3389 -32 32s14.3389 32 32 32zM288 160c17.6611 0 32 -14.3389 32 -32
s-14.3389 -32 -32 -32s-32 14.3389 -32 32s14.3389 32 32 32zM304 256c8.83105 0 16 -7.16895 16 -16s-7.16895 -16 -16 -16s-16 7.16895 -16 16s7.16895 16 16 16z" />
    <glyph glyph-name="egg" unicode="&#xf7fb;" horiz-adv-x="384" 
d="M192 448c106 0 192 -214 192 -320s-86 -192 -192 -192s-192 86 -192 192s86 320 192 320zM192 -32c88.2197 0 160 71.7803 160 160c0 100.72 -82.2402 288 -160 288s-160 -187.28 -160 -288c0 -88.2197 71.7803 -160 160 -160z" />
    <glyph glyph-name="egg-fried" unicode="&#xf7fc;" 
d="M224 335.88c70.5898 0 128 -57.5 128 -128.149c0 -70.6504 -57.4102 -128.12 -128 -128.12s-128 57.4492 -128 128.12c0 70.6699 57.4404 128.149 128 128.149zM224 111.64c52.9766 0.0830078 95.9668 43.1025 96 96.0908c0 52.9893 -43.0703 96.1191 -96 96.1191
s-96 -43.1191 -96 -96.1191c0.0332031 -52.9883 43.0234 -96.0078 96 -96.0908zM224 279.82c8.83105 0 16 -7.19922 16 -16.0303s-7.16895 -16 -16 -16c-22.0762 -0.0439453 -39.9893 -17.9756 -40 -40.0596c0 -8.83105 -7.16895 -16 -16 -16s-16 7.16895 -16 16
c0.0224609 39.7461 32.2646 72.0176 72 72.0898zM478.32 297.55c54.3193 -51.5498 38.8896 -149.28 -17.3906 -192.1c-47.5293 -36.1699 -97.25 -32.4502 -140.93 -73.8906c-46.7803 -44.3799 -91.0596 -95.5596 -155.72 -95.5596
c-15.0898 0 -31.2803 2.79004 -48.9199 9.11035c-62.1406 22.2998 -110.561 84.8398 -114.971 150.75c-4.40918 65.9092 38.9004 128.569 50 192.909c13.29 77.1309 38.2207 143.131 125 157.131c8.23633 1.35742 16.5479 2.07227 25.1602 2.09961
c55.0801 0 89.7197 -32.2598 133.38 -68.21s104.891 -41.5303 144.391 -82.2402zM479.84 208.24c0.850586 15.5293 -1.08984 44.7598 -23.54 66.0195c-17.75 18.2705 -41.7998 28.46 -67.25 39.2705c-25.4502 10.8096 -51.7803 21.9795 -75.4502 41.4697l-9.34961 7.80957
c-37.2197 30.8809 -64.1104 53.1904 -103.7 53.1904c-6.86719 -0.0410156 -13.5029 -0.629883 -20.0693 -1.73047c-57.7002 -9.26953 -83.4805 -43.5693 -98.5908 -130.939c-4.98926 -28.8604 -15.3994 -56.3398 -25.3994 -82.9199
c-13.5801 -35.96 -26.4102 -69.9297 -24.25 -102.41c3.5 -52.8496 43 -104.46 93.9199 -122.71c13.5596 -4.87012 26.0303 -7.24023 38.1201 -7.24023c44.2598 0 79.7695 34.4805 117.359 71c5.44043 5.29004 10.8799 10.5703 16.3506 15.7598
c28.2998 26.8506 58.6895 37.96 85.4902 47.75c20.5596 7.52051 39.9697 14.6104 58.0898 28.4004c21.9199 16.6797 36.5801 46.2803 38.2695 77.2803z" />
    <glyph glyph-name="fish-cooked" unicode="&#xf7fe;" horiz-adv-x="640" 
d="M363.44 384c152.739 0 276.56 -153.6 276.56 -192s-123.82 -192 -276.56 -192c-99.96 0 -187.271 65.7197 -235.9 121.94l-97 -85.6504c-13.4805 -11.0098 -33.54 0.709961 -30.1504 17.5898l26.8799 138.12l-26.8691 138.11
c-3.40039 16.8896 16.6797 28.6094 30.1895 17.5596l97 -85.6699c48.5898 56.2803 135.851 122 235.851 122zM363.44 32c128.189 0 236.079 126.49 244.35 160c-8.27051 33.5098 -116.16 160 -244.35 160c-85.4404 0 -165.32 -57.2803 -211.641 -110.88l-20.3496 -23.5498
c-31.0801 25.4102 -12.0801 8.76953 -92.0801 81.6201c21.7598 -113.921 18.7598 -98.3809 20.5596 -107.19c-1.7998 -8.82031 1.19043 6.7002 -20.5693 -107.19c79.8398 72.7305 60.8896 56.1309 92.0801 81.6104l20.3496 -23.5498
c46.3203 -53.6006 126.25 -110.87 211.65 -110.87zM341.66 282.35c1.45898 -1.44922 2.3623 -3.45898 2.3623 -5.67578s-0.90332 -4.22461 -2.3623 -5.67383l-84.6904 -84.6201c-1.44727 -1.44727 -3.44922 -2.3418 -5.65625 -2.3418
c-2.20605 0 -4.20508 0.894531 -5.65332 2.3418l-11.3105 11.3105c-1.44629 1.44727 -2.3418 3.44922 -2.3418 5.65527c0 2.20703 0.895508 4.20605 2.3418 5.6543l84.6807 84.6602c1.44824 1.4502 3.45117 2.34766 5.66113 2.34766
c2.20898 0 4.20996 -0.897461 5.6582 -2.34766zM453.66 266.35c1.45898 -1.44922 2.3623 -3.45898 2.3623 -5.67578s-0.90332 -4.22461 -2.3623 -5.67383l-148.69 -148.62c-1.44727 -1.44727 -3.44922 -2.3418 -5.65625 -2.3418
c-2.20605 0 -4.20508 0.894531 -5.65332 2.3418l-11.3105 11.3105c-1.44629 1.44727 -2.3418 3.44922 -2.3418 5.65527c0 2.20703 0.895508 4.20605 2.3418 5.6543l148.681 148.66c1.44824 1.4502 3.45117 2.34766 5.66113 2.34766
c2.20898 0 4.20996 -0.897461 5.6582 -2.34766zM490.35 197.66l11.3105 -11.3398c1.4502 -1.44824 2.34766 -3.45215 2.34766 -5.66113c0 -2.20996 -0.897461 -4.21094 -2.34766 -5.65918l-84.6904 -84.6201c-1.44727 -1.44727 -3.44922 -2.3418 -5.65625 -2.3418
c-2.20605 0 -4.20508 0.894531 -5.65332 2.3418l-11.3105 11.3105c-1.44629 1.44727 -2.3418 3.44922 -2.3418 5.65527c0 2.20703 0.895508 4.20605 2.3418 5.6543l84.6807 84.6602c1.44824 1.4502 3.45117 2.34766 5.66113 2.34766
c2.20898 0 4.20996 -0.897461 5.6582 -2.34766z" />
    <glyph glyph-name="flower-daffodil" unicode="&#xf800;" 
d="M288 304c0 -17.6611 -14.3389 -32 -32 -32s-32 14.3389 -32 32s14.3389 32 32 32s32 -14.3389 32 -32zM495.87 160c9.18945 0 16.9795 -9 16.0596 -19.6504c-9.98926 -114.5 -106.359 -204.35 -223.76 -204.35h-64.3398c-117.4 0 -213.771 89.8496 -223.76 204.35
c-0.94043 10.6504 6.87012 19.6504 16.0596 19.6504h47.2705c0.0527344 0 0.0117188 0.169922 0.0644531 0.169922c71.6689 0 135.521 -33.7314 176.535 -86.1699v96.54c-12.1152 -6.64062 -26.1025 -10.4902 -40.8701 -10.54
c-48.0586 0.0498047 -87.0693 39.0537 -87.1299 87.1104c0 0.0712891 0.015625 0.179688 0.015625 0.250977c0 21.6953 8.06738 41.5215 21.3643 56.6387c-13.2969 15.1172 -21.3799 34.9805 -21.3799 56.6758v0.213867c0.0605469 48.0566 39.0713 87.0605 87.1299 87.1104
c0.0751953 0 0.186523 -0.015625 0.261719 -0.015625c21.6826 0 41.4971 -8.05957 56.6084 -21.3447c15.1113 13.2852 34.9629 21.3604 56.6455 21.3604h0.224609c48.0586 -0.0498047 87.0693 -39.0537 87.1299 -87.1104
c0 -0.0712891 -0.015625 -0.179688 -0.015625 -0.250977c0 -21.6953 -8.06738 -41.5215 -21.3643 -56.6387c13.2969 -15.1172 21.3799 -34.9805 21.3799 -56.6758v-0.213867c-0.0605469 -48.0566 -39.0713 -87.0605 -87.1299 -87.1104
c-14.7656 0.0556641 -28.7529 3.9043 -40.8701 10.54v-96.54c41.0137 52.4385 104.771 86 176.439 86h0.160156h47.2705zM240 -32c0 25.9502 2 43.9102 -11.5996 66.6504c-33.6592 56.0312 -94.9346 93.3496 -165 93.3496h-29.5107
c15.4199 -90.8604 96.0508 -160 189.94 -160h16.1699zM256 231.61l12.8701 -17.2207c9.91602 -13.5781 25.9209 -22.3643 44 -22.3896c30.4102 0.0224609 55.0967 24.7021 55.1299 55.1104c-0.0117188 18.1064 -8.81055 34.1348 -22.4102 44.0596l-17.2197 12.8301
l17.2197 12.8301c13.5996 9.9248 22.3984 25.9531 22.4102 44.0596c-0.0332031 30.418 -24.7363 55.1045 -55.1602 55.1104c-18.0791 -0.0253906 -34.084 -8.81152 -44 -22.3896l-12.8398 -17.2207l-12.8701 17.2207c-9.91602 13.5781 -25.9209 22.3643 -44 22.3896
c-30.4102 -0.0224609 -55.0967 -24.7021 -55.1299 -55.1104c0.0117188 -18.1064 8.81055 -34.1348 22.4102 -44.0596l17.2197 -12.8301l-17.2197 -12.8301c-13.5996 -9.9248 -22.3984 -25.9531 -22.4102 -44.0596c0.0332031 -30.418 24.7363 -55.1045 55.1602 -55.1104
c18.0791 0.0253906 34.084 8.81152 44 22.3896zM288 -32c94.0498 0 174.69 69.1396 190.11 160h-29.5107c-70.0645 -0.000976562 -131.312 -37.3193 -164.97 -93.3496c-13.6299 -22.75 -11.6299 -40.6504 -11.6299 -66.6504h16z" />
    <glyph glyph-name="flower-tulip" unicode="&#xf801;" 
d="M495.87 160c9.18945 0 16.9795 -9 16.0596 -19.6504c-9.98926 -114.5 -106.359 -204.35 -223.76 -204.35h-64.3398c-117.4 0 -213.771 89.8496 -223.76 204.35c-0.94043 10.6504 6.87012 19.6504 16.0596 19.6504h47.2705
c0.0527344 0 0.0117188 0.169922 0.0644531 0.169922c71.6689 0 135.521 -33.7314 176.535 -86.1699v86c-79.4756 0 -144 64.5244 -144 144v128c0.0175781 8.81641 7.19434 15.9609 16.0137 15.9609c3.52734 0 6.79004 -1.14453 9.43652 -3.08105l73.9102 -53.6396
l48.3496 51c2.93555 3.52148 7.3457 5.76465 12.2852 5.76465s9.35938 -2.24316 12.2949 -5.76465l48.3496 -51l73.9102 53.6396c2.64648 1.93652 5.92285 3.08887 9.4502 3.08887c8.82031 0 15.9824 -7.15234 16 -15.9688v-128c0 -79.4756 -64.5244 -144 -144 -144v-86
c41.0137 52.4385 104.771 86 176.439 86h0.160156h47.2705zM128 304c0 -61.8145 50.1855 -112 112 -112h32c61.8145 0 112 50.1855 112 112v96.5898l-71.2803 -51.7295l-56.7197 59.8398l-56.7197 -59.8398l-71.2803 51.7295v-96.5898zM240 -32
c0 25.9502 2 43.9102 -11.5996 66.6504c-33.6592 56.0312 -94.9346 93.3496 -165 93.3496h-29.5107c15.4199 -90.8604 96.0508 -160 189.94 -160h16.1699zM288 -32c94.0498 0 174.69 69.1396 190.11 160h-29.5107c-70.0645 -0.000976562 -131.312 -37.3193 -164.97 -93.3496
c-13.6299 -22.75 -11.6299 -40.6504 -11.6299 -66.6504h16z" />
    <glyph glyph-name="folder-tree" unicode="&#xf802;" horiz-adv-x="576" 
d="M288 224c-17.6611 0 -32 14.3389 -32 32v64h-192v-256h192v64c0 17.6611 14.3389 32 32 32h80l32 -32h112c17.6611 0 32 -14.3389 32 -32v-128c0 -17.6611 -14.3389 -32 -32 -32h-224c-17.6611 0 -32 14.3389 -32 32v64h-208c-8.83105 0 -16 7.16895 -16 16v392
c0 4.41504 3.58496 8 8 8h16c4.41504 0 8 -3.58496 8 -8v-88h192v64c0 17.6611 14.3389 32 32 32h80l32 -32h112c17.6611 0 32 -14.3389 32 -32v-128c0 -17.6611 -14.3389 -32 -32 -32h-224zM288 128v-160h224v128h-125.26l-32 32h-66.7402zM288 416v-160h224v128h-125.26
l-32 32h-66.7402z" />
    <glyph glyph-name="glass" unicode="&#xf804;" horiz-adv-x="384" 
d="M352 448c17.6611 0 32.0029 -14.3125 32.0029 -31.9736c0 -0.680664 -0.0205078 -1.35645 -0.0625 -2.02637l-32 -448c-1.04785 -16.7188 -14.96 -30 -31.9404 -30h-256c-16.9805 0 -30.8926 13.2812 -31.9404 30l-32 448
c-0.0419922 0.669922 -0.0595703 1.31934 -0.0595703 2c0 17.6611 14.3389 32 32 32h320zM352 416h-320l9.13965 -128h301.71zM64 -31.7197l256 -0.280273l20.5703 288h-297.141z" />
    <glyph glyph-name="hamburger" unicode="&#xf805;" 
d="M384 240c-8.83105 0 -16 7.16895 -16 16s7.16895 16 16 16s16 -7.16895 16 -16s-7.16895 -16 -16 -16zM208 304c-8.83105 0 -16 7.16895 -16 16s7.16895 16 16 16s16 -7.16895 16 -16s-7.16895 -16 -16 -16zM304 304c-8.83105 0 -16 7.16895 -16 16s7.16895 16 16 16
s16 -7.16895 16 -16s-7.16895 -16 -16 -16zM128 240c-8.83105 0 -16 7.16895 -16 16s7.16895 16 16 16s16 -7.16895 16 -16s-7.16895 -16 -16 -16zM512 128c-0.0556641 -18.8291 -8.27734 -35.7393 -21.3398 -47.3604c3.08984 -4.91992 5.33984 -10.3994 5.33984 -16.6396
v-32c0 -35.3223 -28.6777 -64 -64 -64h-352c-35.3223 0 -64 28.6777 -64 64v32c0 6.24023 2.25 11.7197 5.33984 16.6396c-13.1055 11.6377 -21.4014 28.5654 -21.4014 47.4531c0 21.7041 10.9102 40.8799 27.542 52.3369c-12.7705 20.8799 -16.1104 53.9404 -3.66016 80.75
c40.1797 86.5605 128.64 154.69 232.18 154.82c103.55 -0.129883 192 -68.2695 232.18 -154.83c12.1299 -26.1299 7.19043 -58.1299 -6.34961 -79.0703c18.1074 -11.2402 30.1201 -31.25 30.1699 -54.0996zM52.8496 247.7c-6 -12.9004 -6.48926 -30.21 -1.23926 -44.0801
c0.603516 -1.59766 1.44824 -3.08301 2.48926 -4.40039c3.76074 -4.83008 9.88086 -7.21973 16 -7.21973h368.341c0.0644531 -0.000976562 0.112305 -0.0224609 0.176758 -0.0224609c8.14453 0 15.2168 4.63184 18.7227 11.4023
c0.140625 0.270508 0.270508 0.549805 0.410156 0.830078c6.65039 13.9404 7.2002 31.0098 1.41016 43.4805c-37.79 81.4092 -119.44 136.18 -203.16 136.31c-83.7002 -0.129883 -165.34 -54.9004 -203.15 -136.3zM464 32v32h-416v-32c0 -17.6611 14.3389 -32 32 -32h352
c17.6611 0 32 14.3389 32 32zM448 96c17.6611 0 32 14.3389 32 32s-14.3389 32 -32 32h-384c-17.6611 0 -32 -14.3389 -32 -32s14.3389 -32 32 -32h384z" />
    <glyph glyph-name="hard-hat" unicode="&#xf807;" 
d="M480 96c17.6611 0 32 -14.3389 32 -32v-32c0 -17.6611 -14.3389 -32 -32 -32h-448c-17.6611 0 -32 14.3389 -32 32v32c0 17.6611 14.3389 32 32 32v32c0 101.34 67.6602 186.11 160 213.75v10.25c0 17.6611 14.3389 32 32 32h64c17.6611 0 32 -14.3389 32 -32v-10.25
c92.3398 -27.6396 160 -112.41 160 -213.75v-32zM64 128v-32h384v32c0 78.7598 -48.2402 145.4 -116.3 174.89l-26 -104.069c-1.01953 -3.85254 -4.53027 -6.69727 -8.70117 -6.69727c-4.92578 0 -8.93262 3.9668 -8.99902 8.87695v151h-64v-151
c-0.0205078 -4.9502 -4.04492 -8.95898 -8.99902 -8.95898c-4.19727 0 -7.72754 2.87891 -8.7207 6.76855l-26 104.07c-68.04 -29.4795 -116.28 -96.1201 -116.28 -174.88zM480 32v32h-448v-32h448z" />
    <glyph glyph-name="head-side-brain" unicode="&#xf808;" 
d="M509.21 173c1.76367 -3.9668 2.75879 -8.38281 2.75879 -13c0 -17.6514 -14.3213 -31.9834 -31.9688 -32h-32v-64c0 -35.3223 -28.6777 -64 -64 -64h-64v-56c0 -4.41504 -3.58496 -8 -8 -8h-16c-4.41504 0 -8 3.58496 -8 8v88h96c17.6611 0 32 14.3389 32 32v96h64.0195
c-8.63965 19.4404 -17.8398 46.5596 -27.5693 75.2695c-13.3398 39.3301 -29.9307 88.2705 -42.4502 106.07c-31.877 45.2412 -84.4229 74.6543 -143.92 74.6602h-66.0801c-89.3398 0 -164.65 -69 -167.89 -153.77c-0.0791016 -2.05273 -0.1875 -3.99707 -0.1875 -6.06836
c0 -47.3486 20.6543 -89.9111 53.4375 -119.162l10.6396 -9.54004v-183.46c0 -4.41504 -3.58496 -8 -8 -8h-16c-4.41504 0 -8 3.58496 -8 8v169.18c-39.3164 35.0479 -64.0078 85.9229 -64.0078 142.685c0 2.54004 0.0498047 5.06934 0.147461 7.58594
c3.98047 104.47 95.3301 184.55 199.86 184.55h66.0898c70.3066 0 132.397 -34.7715 170.04 -88.25c24.6396 -35.0195 52.1396 -139.63 73.0801 -186.75zM313.6 256h-42.1299c2.3252 -4.83887 3.67188 -10.29 3.73047 -16c0 -21.1934 -17.207 -38.4004 -38.4004 -38.4004
c-4.49121 0.116211 -8.82617 1.03027 -12.7998 2.58008v-44.1797h-51.2002v44.1797c-3.97363 -1.5498 -8.30859 -2.46387 -12.7998 -2.58008c-21.1934 0 -38.4004 17.207 -38.4004 38.4004c0 0.879883 0.450195 1.62012 0.510742 2.48047
c-15.1104 5.17969 -26.1104 19.0693 -26.1104 35.9199c0 21.1934 17.2061 38.3994 38.4004 38.3994c0 21.1934 17.2061 38.4004 38.3994 38.4004c7.08984 0 13.3799 -2.4502 19.0898 -5.81055c6.77051 10.9307 18.3105 18.6104 32.1104 18.6104
s25.3496 -7.67969 32.1201 -18.6104c5.7002 3.36035 11.9795 5.81055 19.0801 5.81055c16.5713 -0.0800781 30.6475 -10.7549 35.7998 -25.6006h2.59961c21.21 0 38.4004 -16.4795 38.4004 -36.7998c0 -20.3193 -17.1904 -36.7998 -38.4004 -36.7998z" />
    <glyph glyph-name="head-side-medical" unicode="&#xf809;" 
d="M336 232c0 -4.41504 -3.58496 -8 -8 -8h-56v-56c0 -4.41504 -3.58496 -8 -8 -8h-48c-4.41504 0 -8 3.58496 -8 8v56h-56c-4.41504 0 -8 3.58496 -8 8v48c0 4.41504 3.58496 8 8 8h56v56c0 4.41504 3.58496 8 8 8h48c4.41504 0 8 -3.58496 8 -8v-56h56
c4.41504 0 8 -3.58496 8 -8v-48zM509.21 173c1.76367 -3.9668 2.75879 -8.38281 2.75879 -13c0 -17.6514 -14.3213 -31.9834 -31.9688 -32h-32v-64c0 -35.3223 -28.6777 -64 -64 -64h-64v-56c0 -4.41504 -3.58496 -8 -8 -8h-16c-4.41504 0 -8 3.58496 -8 8v88h96
c17.6611 0 32 14.3389 32 32v96h64.0195c-8.63965 19.4404 -17.8398 46.5596 -27.5693 75.2695c-13.3398 39.3301 -29.9307 88.2705 -42.4502 106.07c-31.877 45.2412 -84.4229 74.6543 -143.92 74.6602h-66.0801c-89.3398 0 -164.65 -69 -167.89 -153.77
c-0.0791016 -2.05273 -0.1875 -3.99707 -0.1875 -6.06836c0 -47.3486 20.6543 -89.9111 53.4375 -119.162l10.6396 -9.54004v-183.46c0 -4.41504 -3.58496 -8 -8 -8h-16c-4.41504 0 -8 3.58496 -8 8v169.18c-39.3164 35.0479 -64.0078 85.9229 -64.0078 142.685
c0 2.54004 0.0498047 5.06934 0.147461 7.58594c3.98047 104.47 95.3301 184.55 199.86 184.55h66.0898c70.3066 0 132.397 -34.7715 170.04 -88.25c24.6396 -35.0195 52.1396 -139.63 73.0801 -186.75z" />
    <glyph glyph-name="home-alt" unicode="&#xf80a;" horiz-adv-x="576" 
d="M541 218.84c1.82617 -1.4668 2.98828 -3.7207 2.98828 -6.24316c0 -1.90332 -0.666016 -3.65234 -1.77832 -5.02637l-10.0996 -12.4102c-1.46777 -1.80371 -3.70703 -2.94824 -6.21094 -2.94824c-1.90918 0 -3.66309 0.669922 -5.03906 1.78809l-40.8604 33.3799v-243.05
c0 -8.83105 -7.16895 -16 -16 -16l-128 -0.330078c-8.83105 0 -16 7.16895 -16 16v128.08l-64 0.299805v-128c0 -8.83008 -7.16895 -16 -16 -16h-128c-8.83105 0 -16 7.16992 -16 16v243l-40.8604 -33.3799c-1.36914 -1.0957 -3.1084 -1.75977 -4.99707 -1.75977
c-2.50098 0 -4.73535 1.15039 -6.20215 2.9502l-10.1006 12.4092c-1.11523 1.375 -1.79102 3.12988 -1.79102 5.03613c0 2.50195 1.15039 4.7373 2.95117 6.2041l232.77 190c5.51855 4.4502 12.5791 7.11621 20.2129 7.11621s14.6494 -2.66602 20.168 -7.11621zM447.89 0.25
l0.110352 253.24l-160 130.569l-160 -130.569v-253.24h95.9902v128.14c0 8.83105 7.16797 16 15.999 16h0.0507812l96 -0.269531c8.79492 -0.0546875 15.9229 -7.19922 15.9502 -16v-128.17l96 0.299805h-0.100586z" />
    <glyph glyph-name="home-lg" unicode="&#xf80b;" horiz-adv-x="576" 
d="M573.48 228.09c1.54199 -1.30957 2.51465 -3.26758 2.51465 -5.44824c0 -1.59277 -0.522461 -3.06348 -1.40527 -4.25195l-14.1895 -17.5c-1.25293 -1.54102 -3.16602 -2.52051 -5.30566 -2.52051c-1.62695 0 -3.12109 0.570312 -4.29492 1.52051l-38.7998 31.29v-279.18
c0 -8.83105 -7.16895 -16 -16 -16h-416c-8.83105 0 -16 7.16895 -16 16v279.28l-38.6699 -31.1904c-1.17285 -0.953125 -2.6709 -1.53125 -4.29883 -1.53125c-2.13965 0 -4.05078 0.987305 -5.30078 2.53125l-14.2002 17.5
c-0.950195 1.1582 -1.52832 2.64062 -1.52832 4.25391c0 2.12305 0.988281 4.0166 2.52832 5.24609l262.88 211.91c6.16406 5.00391 14.0684 8.00391 22.6191 8.00391s16.4062 -3 22.5703 -8.00391l169.4 -136.6v72.5996c0 4.41504 3.58496 8 8 8h16
c4.41504 0 8 -3.58496 8 -8v-98.4199zM336 -32v160h-96v-160h96zM480 -32v289l-187.89 151.48c-1.14355 0.935547 -2.61328 1.49707 -4.20508 1.49707c-1.59082 0 -3.05176 -0.561523 -4.19531 -1.49707l-187.71 -151.4v-289.08h112v176c0 8.83105 7.16895 16 16 16h128
c8.83105 0 16 -7.16895 16 -16v-176h112z" />
    <glyph glyph-name="home-lg-alt" unicode="&#xf80c;" horiz-adv-x="576" 
d="M573.48 228.09c1.54199 -1.30957 2.51465 -3.26758 2.51465 -5.44824c0 -1.59277 -0.522461 -3.06348 -1.40527 -4.25195l-14.1895 -17.5c-1.25293 -1.54102 -3.16602 -2.52051 -5.30566 -2.52051c-1.62695 0 -3.12109 0.570312 -4.29492 1.52051l-38.7998 31.29v-279.18
c0 -8.83105 -7.16895 -16 -16 -16h-416c-8.83105 0 -16 7.16895 -16 16v279.28l-38.6699 -31.1904c-1.17285 -0.953125 -2.6709 -1.53125 -4.29883 -1.53125c-2.13965 0 -4.05078 0.987305 -5.30078 2.53125l-14.2002 17.5
c-0.950195 1.1582 -1.52832 2.64062 -1.52832 4.25391c0 2.12305 0.988281 4.0166 2.52832 5.24609l262.88 211.91c6.16406 5.00391 14.0684 8.00391 22.6191 8.00391s16.4062 -3 22.5703 -8.00391zM240 -32h96v160h-96v-160zM480 -32v289l-187.89 151.48
c-1.14355 0.935547 -2.61328 1.49707 -4.20508 1.49707c-1.59082 0 -3.05176 -0.561523 -4.19531 -1.49707l-187.71 -151.4v-289.08h112v176c0 8.83105 7.16895 16 16 16h128c8.83105 0 16 -7.16895 16 -16v-176h112z" />
    <glyph glyph-name="hospital-user" unicode="&#xf80d;" horiz-adv-x="640" 
d="M148 256c6.62305 0 12 -5.37695 12 -12v-40c0 -6.62305 -5.37695 -12 -12 -12h-40c-6.62305 0 -12 5.37695 -12 12v40c0 6.62305 5.37695 12 12 12h40zM148 160c6.62305 0 12 -5.37695 12 -12v-40c0 -6.62305 -5.37695 -12 -12 -12h-40c-6.62305 0 -12 5.37695 -12 12v40
c0 6.62305 5.37695 12 12 12h40zM148 64c6.62305 0 12 -5.37695 12 -12v-40c0 -6.62305 -5.37695 -12 -12 -12h-40c-6.62305 0 -12 5.37695 -12 12v40c0 6.62305 5.37695 12 12 12h40zM244 160c6.62305 0 12 -5.37695 12 -12v-40c0 -6.62305 -5.37695 -12 -12 -12h-40
c-6.62305 0 -12 5.37695 -12 12v40c0 6.62305 5.37695 12 12 12h40zM244 256c6.62305 0 12 -5.37695 12 -12v-40c0 -6.62305 -5.37695 -12 -12 -12h-40c-6.62305 0 -12 5.37695 -12 12v40c0 6.62305 5.37695 12 12 12h40zM244 64c6.62305 0 12 -5.37695 12 -12v-40
c0 -6.62305 -5.37695 -12 -12 -12h-40c-6.62305 0 -12 5.37695 -12 12v40c0 6.62305 5.37695 12 12 12h40zM192 320v-26c0 -3.31152 -2.68848 -6 -6 -6h-20c-3.31152 0 -6 2.68848 -6 6v26h-26c-3.31152 0 -6 2.68848 -6 6v20c0 3.31152 2.68848 6 6 6h26v26
c0 3.31152 2.68848 6 6 6h20c3.31152 0 6 -2.68848 6 -6v-26h26c3.31152 0 6 -2.68848 6 -6v-20c0 -3.31152 -2.68848 -6 -6 -6h-26zM480 128c-52.9834 0 -96 43.0166 -96 96s43.0166 96 96 96s96 -43.0166 96 -96s-43.0166 -96 -96 -96zM480 288
c-35.3047 -0.0380859 -63.9619 -28.6953 -64 -64c0 -35.3223 28.6777 -64 64 -64s64 28.6777 64 64s-28.6777 64 -64 64zM623.69 66.8701c10.2617 -15.2236 16.3096 -33.6514 16.3096 -53.375v-0.165039v-37.3301c0 -22.0762 -17.9238 -40 -40 -40h-240
c-22.0762 0 -40 17.9238 -40 40v37.3301c0 0.0615234 0.0556641 0.21582 0.0556641 0.277344c0 19.7236 5.99219 38.0586 16.2539 53.2822c17.25 25.6299 46.6709 39.1104 76.9004 39.1104c27.8398 0 34.79 -10 66.79 -10s39 10 66.79 10
c30.21 0 59.6504 -13.5 76.9004 -39.1299zM608 -24v37.3301c0 0.0458984 -0.0371094 0.15332 -0.0371094 0.200195c0 13.1289 -3.98633 25.333 -10.8125 35.4697c-10.5303 15.6602 -29.3604 25 -50.3604 25c-21.79 0 -30 -10 -66.79 -10s-44.9902 10 -66.79 10
c-21.0098 0 -39.8301 -9.36035 -50.3604 -25c-6.82617 -10.1367 -10.8496 -22.4023 -10.8496 -35.5312v-0.138672v-37.3301c0 -4.41504 3.58496 -8 8 -8h240c4.41504 0 8 3.58496 8 8zM320 320h-48v96h-192v-96h-48v-376c0 -4.41504 -3.58496 -8 -8 -8h-16
c-4.41504 0 -8 3.58496 -8 8v376c0 17.6611 14.3389 32 32 32h16v64c0 17.6611 14.3389 32 32 32h192c17.6611 0 32 -14.3389 32 -32v-64h16c17.6611 0 32 -14.3389 32 -32v-197.31c-12.1113 -6.49805 -22.8379 -14.9023 -32 -25v222.31z" />
    <glyph glyph-name="hospitals" unicode="&#xf80e;" horiz-adv-x="640" 
d="M148 256c6.62305 0 12 -5.37695 12 -12v-40c0 -6.62305 -5.37695 -12 -12 -12h-40c-6.62305 0 -12 5.37695 -12 12v40c0 6.62305 5.37695 12 12 12h40zM148 160c6.62305 0 12 -5.37695 12 -12v-40c0 -6.62305 -5.37695 -12 -12 -12h-40c-6.62305 0 -12 5.37695 -12 12v40
c0 6.62305 5.37695 12 12 12h40zM148 64c6.62305 0 12 -5.37695 12 -12v-40c0 -6.62305 -5.37695 -12 -12 -12h-40c-6.62305 0 -12 5.37695 -12 12v40c0 6.62305 5.37695 12 12 12h40zM244 160c6.62305 0 12 -5.37695 12 -12v-40c0 -6.62305 -5.37695 -12 -12 -12h-40
c-6.62305 0 -12 5.37695 -12 12v40c0 6.62305 5.37695 12 12 12h40zM244 256c6.62305 0 12 -5.37695 12 -12v-40c0 -6.62305 -5.37695 -12 -12 -12h-40c-6.62305 0 -12 5.37695 -12 12v40c0 6.62305 5.37695 12 12 12h40zM244 64c6.62305 0 12 -5.37695 12 -12v-40
c0 -6.62305 -5.37695 -12 -12 -12h-40c-6.62305 0 -12 5.37695 -12 12v40c0 6.62305 5.37695 12 12 12h40zM192 320v-26c0 -3.31152 -2.68848 -6 -6 -6h-20c-3.31152 0 -6 2.68848 -6 6v26h-26c-3.31152 0 -6 2.68848 -6 6v20c0 3.31152 2.68848 6 6 6h26v26
c0 3.31152 2.68848 6 6 6h20c3.31152 0 6 -2.68848 6 -6v-26h26c3.31152 0 6 -2.68848 6 -6v-20c0 -3.31152 -2.68848 -6 -6 -6h-26zM468 256c6.62305 0 12 -5.37695 12 -12v-40c0 -6.62305 -5.37695 -12 -12 -12h-40c-6.62305 0 -12 5.37695 -12 12v40
c0 6.62305 5.37695 12 12 12h40zM468 160c6.62305 0 12 -5.37695 12 -12v-40c0 -6.62305 -5.37695 -12 -12 -12h-40c-6.62305 0 -12 5.37695 -12 12v40c0 6.62305 5.37695 12 12 12h40zM468 64c6.62305 0 12 -5.37695 12 -12v-40c0 -6.62305 -5.37695 -12 -12 -12h-40
c-6.62305 0 -12 5.37695 -12 12v40c0 6.62305 5.37695 12 12 12h40zM564 160c6.62305 0 12 -5.37695 12 -12v-40c0 -6.62305 -5.37695 -12 -12 -12h-40c-6.62305 0 -12 5.37695 -12 12v40c0 6.62305 5.37695 12 12 12h40zM564 256c6.62305 0 12 -5.37695 12 -12v-40
c0 -6.62305 -5.37695 -12 -12 -12h-40c-6.62305 0 -12 5.37695 -12 12v40c0 6.62305 5.37695 12 12 12h40zM564 64c6.62305 0 12 -5.37695 12 -12v-40c0 -6.62305 -5.37695 -12 -12 -12h-40c-6.62305 0 -12 5.37695 -12 12v40c0 6.62305 5.37695 12 12 12h40zM512 320v-26
c0 -3.31152 -2.68848 -6 -6 -6h-20c-3.31152 0 -6 2.68848 -6 6v26h-26c-3.31152 0 -6 2.68848 -6 6v20c0 3.31152 2.68848 6 6 6h26v26c0 3.31152 2.68848 6 6 6h20c3.31152 0 6 -2.68848 6 -6v-26h26c3.31152 0 6 -2.68848 6 -6v-20c0 -3.31152 -2.68848 -6 -6 -6h-26z
M640 352c17.6611 0 32 -14.3389 32 -32v-376c0 -4.41504 -3.58496 -8 -8 -8h-16c-4.41504 0 -8 3.58496 -8 8v376h-48v96h-192v-96h-48v-376c0 -4.41504 -3.58496 -8 -8 -8h-16c-4.41504 0 -8 3.58496 -8 8v376h-48v96h-192v-96h-48v-376c0 -4.41504 -3.58496 -8 -8 -8h-16
c-4.41504 0 -8 3.58496 -8 8v376c0 17.6611 14.3389 32 32 32h16v64c0 17.6611 14.3389 32 32 32h192c17.6611 0 32 -14.3389 32 -32v-64h64v64c0 17.6611 14.3389 32 32 32h192c17.6611 0 32 -14.3389 32 -32v-64h16z" />
    <glyph glyph-name="hotdog" unicode="&#xf80f;" 
d="M469.96 268.79l22.1602 -22.1396c24.9902 -24.9902 26.6602 -63.8506 3.71973 -86.79l-207.68 -207.681c-10.8203 -10.8193 -25.1904 -16.1699 -39.9805 -16.1699c-16.5498 0 -33.6094 6.69043 -46.8096 19.8906l-22.1504 22.1494l-13.6201 -13.6201
c-18.3193 -18.3301 -42.6797 -28.4297 -68.5996 -28.4297s-50.2803 10.0996 -68.5801 28.4102c-18.3301 18.3203 -28.4199 42.6797 -28.4199 68.5898s10.0898 50.2695 28.4102 68.5801l13.6299 13.6299l-22.1504 22.1504c-24.9893 24.9893 -26.6592 63.8496 -3.71973 86.79
l207.68 207.68c10.8203 10.8203 25.1904 16.1699 39.9805 16.1699c16.54 0 33.6104 -6.69043 46.7998 -19.9004l22.1504 -22.1494l13.6201 13.6201c18.3193 18.3301 42.6797 28.4297 68.5996 28.4297s50.2803 -10.0996 68.5801 -28.4102
c18.3301 -18.3203 28.4199 -42.6797 28.4199 -68.5898s-10.0898 -50.2695 -28.4199 -68.5801zM38.7998 201.53c-10.4297 -10.4307 -8.75977 -29.0605 3.71973 -41.54l22.1504 -22.1504l245.49 245.49l-22.1504 22.1504c-11.75 11.7393 -30.6299 14.6299 -41.54 3.71973z
M142.96 -12.96l318 318c25.3896 25.3701 25.3896 66.5303 0 91.9102c-25.3701 25.3994 -66.5498 25.3799 -91.9102 0l-318 -318c-25.3896 -25.3701 -25.3896 -66.5303 0 -91.9102c25.3701 -25.4004 66.5498 -25.3799 91.9102 0zM473.2 182.47
c10.4297 10.4307 8.75977 29.0605 -3.71973 41.54l-22.1504 22.1504l-245.49 -245.49l22.1504 -22.1504c11.7598 -11.7598 30.6396 -14.6094 41.5293 -3.71973zM416 352c6.25 6.25 16.3799 6.25 22.6201 0c6.25 -6.25 6.25 -16.3799 0 -22.6299
c-19.5898 -19.5898 -37.5205 -22.6699 -51.9199 -25.1396c-12.9502 -2.2207 -22.3105 -3.82031 -34.71 -16.2305c-12.4004 -12.4102 -14.0098 -21.7598 -16.2305 -34.71c-2.46973 -14.4004 -5.5498 -32.3301 -25.1396 -51.9199s-37.5205 -22.6699 -51.9199 -25.1396
c-12.9502 -2.2207 -22.3105 -3.83008 -34.71 -16.2305c-12.4004 -12.4102 -14.0098 -21.7598 -16.2305 -34.71c-2.46973 -14.4004 -5.54004 -32.3203 -25.1396 -51.9199c-19.5898 -19.6006 -37.5205 -22.6699 -51.9199 -25.1396
c-12.9404 -2.2207 -22.2998 -3.83008 -34.7002 -16.2305c-3.12012 -3.12012 -7.21973 -4.69043 -11.3096 -4.69043c-4.09082 0 -8.19043 1.57031 -11.3105 4.69043c-6.25 6.25 -6.25 16.3799 0 22.6299c19.5898 19.6006 37.5205 22.6699 51.9199 25.1396
c12.9404 2.2207 22.2998 3.83008 34.7002 16.2305s14 21.75 16.2305 34.71c2.46973 14.4004 5.53906 32.3203 25.1396 51.9199c19.5898 19.5898 37.5195 22.6699 51.9199 25.1396c12.9502 2.2207 22.3096 3.83008 34.71 16.2305
c12.4004 12.4102 14.0098 21.7598 16.2305 34.71c2.46973 14.4004 5.53906 32.3203 25.1396 51.9199c19.5898 19.5898 37.5195 22.6699 51.9199 25.1396c12.9502 2.2207 22.3096 3.82031 34.71 16.2305z" />
    <glyph glyph-name="island-tropical" unicode="&#xf811;" horiz-adv-x="448" 
d="M299.39 416c75.2305 0 137.53 -47.25 148.37 -108.86c0.139648 -0.862305 0.21582 -1.73047 0.21582 -2.63184c0 -9.1123 -7.39746 -16.5098 -16.5098 -16.5098c-0.0888672 0 -0.177734 0.000976562 -0.265625 0.00195312h-150.91
c6.33008 -48.5098 11.5996 -121.28 1.90039 -195.59c58.1895 -13.4102 101.81 -65.4102 101.81 -127.61c-0.0273438 -15.8857 -12.9229 -28.7773 -28.8096 -28.7998h-326.381c-15.8867 0.0224609 -28.7822 12.9141 -28.8096 28.7998c0 72.3398 58.8398 131.2 131.19 131.2
h20.5098c16.04 41.6299 32.8193 95.1504 41.6699 152.15l-83.1299 -83.1406c-5.66016 -5.64941 -18.1104 -8.33008 -25.2402 1.83984c-29.8799 42.6309 -27.0596 103.28 5.25 153.15h-73.4502c-0.0878906 -0.000976562 -0.172852 -0.0175781 -0.261719 -0.0175781
c-9.11133 0 -16.5098 7.39746 -16.5098 16.5098c0 0.901367 0.0722656 1.78516 0.211914 2.64746c10.8398 61.6201 73.1396 108.86 148.38 108.86c41.8398 0 79.5996 -14.6699 106.83 -38.2305c13.9395 3.68066 28.54 6.23047 43.9395 6.23047zM351.94 -32
c-1.76953 53.2168 -45.501 95.9375 -99.1309 96h-121.619c-53.6299 -0.0625 -97.3613 -42.7832 -99.1309 -96h319.881zM250.12 96c9.64941 73 4.13965 145.36 -2.12012 192h-14.7695l-10.2705 -10.2803c-6.41992 -64.8994 -19.25 -133.25 -37.1104 -181.72h64.2705zM220 320
h190.66c-16.4404 37.5195 -60.8203 64 -111.271 64c-20.6992 0 -41.3301 -6.62012 -52.1396 -9.41992l-12.7598 11c-22.6602 19.6201 -53.1504 30.4199 -85.8701 30.4199c-50.4502 0 -94.8398 -26.4697 -111.28 -64h79.9004
c13.4102 12.5254 28.7617 22.8242 45.6797 30.5098c0.958984 0.407227 2.01562 0.640625 3.12305 0.640625c3.39258 0 6.29492 -2.11719 7.45703 -5.10059l6 -14.9102c0.344727 -0.892578 0.542969 -1.8623 0.542969 -2.87598
c0 -3.28711 -1.98633 -6.11328 -4.82324 -7.34375c-65.1094 -29.3203 -91.6895 -101.68 -73 -150.68z" />
    <glyph glyph-name="laptop-medical" unicode="&#xf812;" horiz-adv-x="640" 
d="M624 80c8.83105 0 16 -7.16895 16 -16v-48c-0.0498047 -44.1299 -35.8701 -79.9502 -80 -80h-480c-44.1299 0.0498047 -79.9502 35.8701 -80 80v48c0 8.83105 7.16895 16 16 16h48v272c0.0380859 35.3047 28.6953 63.9619 64 64h384
c35.3047 -0.0380859 63.9619 -28.6953 64 -64v-272h48zM96 352v-272h152.87c4.05957 0 7.01953 -3.08984 7.91992 -7.08984c3.23633 -14.2451 15.9863 -24.9102 31.2041 -24.9102h0.00585938h64l0.00390625 0.0195312c15.2188 0 27.9697 10.6455 31.2061 24.8906
c0.919922 3.95996 3.86035 7.08984 7.91992 7.08984h152.87v272c0 17.6611 -14.3389 32 -32 32h-384c-17.6611 0 -32 -14.3389 -32 -32zM608 16v32h-194.75c-6.59082 -18.6416 -24.3643 -31.998 -45.25 -32h-96c-20.8789 0.0205078 -38.6445 13.3691 -45.25 32h-194.75v-32
c0.0273438 -26.4795 21.5205 -47.9727 48 -48h480c26.4795 0.0273438 47.9727 21.5205 48 48zM288 136v56h-56c-4.41504 0 -8 3.58496 -8 8v48c0 4.41504 3.58496 8 8 8h56v56c0 4.41504 3.58496 8 8 8h48c4.41504 0 8 -3.58496 8 -8v-56h56c4.41504 0 8 -3.58496 8 -8v-48
c0 -4.41504 -3.58496 -8 -8 -8h-56v-56c0 -4.41504 -3.58496 -8 -8 -8h-48c-4.41504 0 -8 3.58496 -8 8z" />
    <glyph glyph-name="meat" unicode="&#xf814;" 
d="M343 332.1c9.75 9.80078 29.6699 5.83008 44.3799 -8.86914c14.71 -14.7002 18.6904 -34.5605 8.87988 -44.3701c-9.80957 -9.81055 -29.6699 -5.83008 -44.3799 8.87012c-14.71 14.6992 -18.6895 34.5693 -8.87988 44.3691zM443.67 379.42
c54.8398 -54.8701 97.8896 -158 42.6201 -213.27c-38.6504 -38.6904 -113.81 -102.15 -183.65 -102.15h-82.5898l-11.4297 -11.3799c-5.87988 -5.92969 -3 -14.6797 -2 -17.21c18.8496 -47.1904 -15.5303 -99.4102 -67.3398 -99.4102
c-37.2803 0 -69.6504 28.2998 -71.6201 67.6699c-52.0898 2.61035 -67.6602 50.1396 -67.6602 71.6699c0 0.0214844 0.0419922 0.0117188 0.0419922 0.0332031c0 40.0029 32.4766 72.4805 72.4795 72.4805c9.46387 0 18.5068 -1.81836 26.7988 -5.12305
c8.09961 -3.26074 14.0693 -1.08008 17.21 2.05957l11.4697 11.4795v82.2803c0 69.8203 63.5195 144.92 102.22 183.601c6.78027 6.79004 30.1006 25.8496 68.7207 25.8496c31.4492 0 89.21 -13.0703 144.68 -68.5195zM302.64 96c37.5508 0 88.5801 26.8096 139.811 72.71
c-4.46289 -0.65625 -8.94043 -1.02051 -13.5703 -1.08008c-43.5098 0 -93.3203 23.8203 -133.32 63.8203c-31.5293 31.5098 -53.8193 70.6396 -61.1699 107.33c-1.50586 7.53418 -2.30078 15.1143 -2.30078 23.0889c0 5.78906 0.416992 11.4824 1.2207 17.0508
c-46.3096 -51.4297 -73.3096 -102.7 -73.3096 -140.37v-95.5498l-20.7803 -20.8398c-13.7598 -13.8203 -34.0596 -16.25 -51.7598 -9.12012c-4.60742 1.85352 -9.66016 2.88965 -14.9268 2.88965h-0.0732422c-52.2002 0 -53.7803 -77.7598 -3.2002 -80.2998l28.8799 -1.4502
l1.4502 -28.9102c3.03027 -60.6191 100.79 -40.4395 77.3398 18.2607c-7.45996 18.8799 -3.92969 38.6602 9.15039 51.7393l20.7197 20.7305h95.8398zM463.64 211.42c24.2598 24.2598 11.2002 91.5801 -42.6396 145.45c-55.8096 55.7803 -122.08 66.1299 -145.51 42.6699
c-24.5498 -24.54 -11.0303 -91.7598 42.6797 -145.45c55.8301 -55.79 122.07 -66.0898 145.47 -42.6699z" />
    <glyph glyph-name="pager" unicode="&#xf815;" 
d="M272 128c8.83105 0 16 -7.16895 16 -16s-7.16895 -16 -16 -16h-80v32h80zM448 384c35.3223 0 64 -28.6777 64 -64v-256c0 -35.3223 -28.6777 -64 -64 -64h-384c-35.3223 0 -64 28.6777 -64 64v256c0 35.3223 28.6777 64 64 64h384zM480 64v256
c0 17.6611 -14.3389 32 -32 32h-384c-17.6611 0 -32 -14.3389 -32 -32v-256c0 -17.6611 14.3389 -32 32 -32h384c17.6611 0 32 14.3389 32 32zM64 112c0 8.83105 7.16895 16 16 16h80v-32h-80c-8.83105 0 -16 7.16895 -16 16zM424 320c13.2461 0 24 -10.7539 24 -24v-112
c0 -13.2461 -10.7539 -24 -24 -24h-336c-13.2461 0 -24 10.7539 -24 24v112c0 13.2461 10.7539 24 24 24h336zM416 192v96h-320v-96h320z" />
    <glyph glyph-name="pepper-hot" unicode="&#xf816;" 
d="M452.4 312.4c36.5156 -31.1338 59.5947 -77.4209 59.5996 -129.12c0 -13.4805 -1.94043 -27.2803 -6.05957 -43.3105c-2.35059 -9.10938 -8.66016 -13.1094 -14.8906 -13.1094c-4.24609 0.0136719 -8.08398 1.78125 -10.8193 4.62012
c-74.8008 -108.341 -231.23 -195.48 -416.23 -195.48c-35.3291 0.03125 -64.0039 28.666 -64.0039 64.0029c0 3.8125 0.333984 7.54688 0.973633 11.1768c3 17.79 21.1699 52.5508 62.5801 52.8799c44.3906 0.360352 87.9902 16.4404 113.16 53
c18.5205 26.9209 29.4902 57.9404 40.2305 88.54c12.2998 35.1602 25.0596 68.6504 48 93.4707c-11.0205 4.71973 -13.5303 20.3398 -1.4707 27.9297c26.0898 16.3398 55.4404 25 84.8701 25c30.1406 0 53.9199 -6 78.2002 -20.6699
c30.5498 45.3496 22.0498 77.4199 13.8096 93c-0.62207 1.13086 -0.981445 2.43945 -0.981445 3.82031c0 2.15039 0.858398 4.10156 2.25195 5.5293l12 12c1.42285 1.43262 3.39355 2.31836 5.57031 2.32031c0.0136719 0 0.0224609 0.00878906 0.0361328 0.00878906
c2.80469 0 5.25977 -1.50391 6.60352 -3.74902c11.8203 -19.75 30.3096 -67.6602 -13.4297 -131.859zM348.34 320c-13.0137 -0.0361328 -25.5723 -2.12793 -37.3398 -5.91992l37.6104 -16.0801c11.4111 -4.89258 19.3896 -16.2158 19.3896 -29.4102v-0.0400391v-51.7295
h60.9297c9.05762 0 17.2461 -3.76367 23.0703 -9.82031l27.8701 -28.96c0.129883 1.76953 0.129883 3.50977 0.129883 5.24023c0 46.04 -37 136.72 -131.66 136.72zM64 -32c147.88 0 306.7 61.1396 393.18 186.43c-13.6201 14.5107 -28.2393 30.4102 -28.2393 30.4102
h-60.9404c-17.6611 0 -32 14.3389 -32 32v51.71l-40.4404 16.4004c-12.1396 -13.1006 -24.3896 -21.3799 -48.46 -90c-10.75 -30.6602 -22.9297 -65.4004 -44.0596 -96.0898c-28.9199 -42.0205 -79.6797 -66.3799 -139.271 -66.8506
c-23.5596 -0.189453 -30.5693 -22.0195 -31.2793 -26.1895c-4.25977 -25.3398 17.5098 -37.8203 31.5098 -37.8203z" />
    <glyph glyph-name="pizza" unicode="&#xf817;" horiz-adv-x="576" 
d="M523.2 347.87c33.0371 -43.1758 52.6738 -97.5488 52.6738 -156.061c0 -58.5127 -19.6367 -112.475 -52.6738 -155.649c-2.81738 -3.65625 -7.22852 -6.00098 -12.1963 -6.00098c-0.0546875 0 -0.109375 0 -0.164062 0.000976562
c-0.00976562 0 -0.0214844 -0.00195312 -0.03125 -0.00195312c-4.51562 0 -8.6084 1.82715 -11.5781 4.78223l-157.061 157.06l157.061 157.09c2.96973 2.95508 7.06445 4.78027 11.5801 4.78027h0.0292969c0.0498047 0 0.0898438 0.0126953 0.139648 0.0126953
c4.97168 0 9.39746 -2.35645 12.2207 -6.0127zM461.2 118.18c11.8535 21.9277 18.7432 47.1787 18.7998 73.8203c-0.0996094 26.6357 -6.92285 51.8975 -18.71 73.8701l-73.8701 -73.8701zM508.51 70.8799c22.3564 34.9072 35.3623 76.8633 35.3623 121.354
s-12.9658 85.9785 -35.3223 120.886l-23.7197 -23.71c16.9697 -28.6201 27.1699 -61.7305 27.1699 -97.4102c-0.0615234 -35.5625 -10.0254 -69.0586 -27.0996 -97.5195zM256.45 192l169.149 -169.15c6.45996 -6.45996 6.4502 -17.3896 -0.419922 -23.3896
c-44.9277 -39.4697 -103.939 -63.46 -168.384 -63.46h-0.345703c-81.0703 0 -162.15 38.2803 -213.8 114.82c-56.8701 84.3398 -56.8701 198.04 0 282.34c51.6396 76.5596 132.72 114.84 213.81 114.84c0.113281 0 0.342773 -0.046875 0.456055 -0.046875
c64.4424 0 123.337 -23.9434 168.264 -63.4131c6.87012 -6.03027 6.87988 -16.9297 0.419922 -23.3896zM264 256c8.83105 0 16 7.16895 16 16s-7.16895 16 -16 16s-16 -7.16895 -16 -16s7.16895 -16 16 -16zM308.61 289.41l35.1201 35.1201
c-25.2305 16.9795 -55.0908 27.4697 -87.7305 27.4697c-88.2197 0 -160 -71.7803 -160 -160c0 -37 13.1602 -70.7305 34.3604 -97.8799c5.98828 19.6055 24.2695 33.9092 45.8242 33.9092c26.4199 0 47.8701 -21.4492 47.8701 -47.8691
c0 -15.9629 -7.83008 -30.1104 -19.8545 -38.8105c16.3398 -5.63965 33.5693 -9.34961 51.7998 -9.34961c32.6201 0 62.3896 10.5801 87.6201 27.5801l-132.42 132.42l35.4102 35.4102c-17.9268 6.93848 -30.6465 24.3594 -30.6465 44.7227
c0 26.4531 21.4766 47.9297 47.9297 47.9297c20.3633 0 37.7773 -12.7266 44.7168 -30.6523zM192 80c0 8.83105 -7.16895 16 -16 16s-16 -7.16895 -16 -16s7.16895 -16 16 -16s16 7.16895 16 16zM256.45 -32c0.0566406 0 0.298828 0.107422 0.355469 0.107422
c50.1621 0 96.4893 16.5498 133.814 44.4824l-23.6201 23.6201c-31.4199 -22.4404 -69.4502 -36.21 -111 -36.21c-106 0 -192 86 -192 192s86 192 192 192c41.5498 0 79.4805 -13.8701 110.87 -36.3301l23.7402 23.7402c-37.3213 27.9326 -83.8311 44.5898 -133.99 44.5898
h-0.160156c-75.8398 0 -144.1 -36.7197 -187.28 -100.74c-49.75 -73.7402 -49.7393 -172.81 0 -246.54c43.1904 -64.0098 111.45 -100.72 187.271 -100.72z" />
    <glyph glyph-name="pizza-slice" unicode="&#xf818;" 
d="M158.87 447.85c181.91 -17.1699 332.02 -164.93 352.899 -345.689c1.87012 -16.2197 -7.89941 -31.54 -23.6191 -35.8906l-467.601 -129.659c-1.40137 -0.391602 -2.875 -0.605469 -4.39941 -0.610352c-8.91406 0.0585938 -16.1328 7.30664 -16.1328 16.2344
c0 1.42871 0.185547 2.81445 0.532227 4.13574l122.99 467.36c3.7793 13.9707 16.5439 24.2715 31.7031 24.2715c0.123047 0 0.245117 -0.000976562 0.367188 -0.00195312c1.08008 0 2.16992 -0.0498047 3.25977 -0.150391zM38.4902 -25.21l358.96 99.5498
c-16.0703 147.12 -116.15 245.75 -264.45 259.75zM428.65 83l50.9492 14.1104c-18.7393 166.76 -158.069 303.26 -323.739 318.89h-0.25c-0.0390625 0.00292969 -0.0771484 0.00390625 -0.116211 0.00390625c-0.378906 0 -0.725586 -0.136719 -0.994141 -0.364258
l-13.2402 -50.3096c159.87 -17.1396 268.12 -123.7 287.391 -282.33zM192 272c26.4795 -0.0273438 47.9727 -21.5205 48 -48c0 -26.4922 -21.5078 -48 -48 -48s-48 21.5078 -48 48s21.5078 48 48 48zM192 208c8.83105 0 16 7.16895 16 16s-7.16895 16 -16 16
s-16 -7.16895 -16 -16s7.16895 -16 16 -16zM144 128c26.4795 -0.0273438 47.9727 -21.5205 48 -48c0 -26.4922 -21.5078 -48 -48 -48s-48 21.5078 -48 48s21.5078 48 48 48zM144 64c8.83105 0 16 7.16895 16 16s-7.16895 16 -16 16s-16 -7.16895 -16 -16s7.16895 -16 16 -16
zM240 128c0.0273438 26.4795 21.5205 47.9727 48 48c26.4922 0 48 -21.5078 48 -48s-21.5078 -48 -48 -48s-48 21.5078 -48 48zM304 128c0 8.83105 -7.16895 16 -16 16s-16 -7.16895 -16 -16s7.16895 -16 16 -16s16 7.16895 16 16z" />
    <glyph glyph-name="rings-wedding" unicode="&#xf81b;" 
d="M351.64 287.21c89.8604 -7.92969 160.36 -83.29 160.36 -175.21c0 -0.0244141 0.0634766 -0.170898 0.0634766 -0.195312c0 -97.0986 -78.8311 -175.93 -175.93 -175.93c-55.4131 0 -104.876 25.6738 -137.134 65.7646c-7.57227 -1.06152 -15.1426 -1.61621 -23 -1.63965
c-97.1367 0 -176 78.8633 -176 176c0 76.3799 48.75 141.22 116.76 165.56l-42.7598 62.2207l60.8096 44.2197h82.3809l60.8096 -44.2197l-42.7598 -62.2207c68.0098 -24.3398 116.76 -89.1797 116.76 -165.56c0 -64.1699 -34.46 -120.16 -85.7695 -150.91
c-8.90332 6.94629 -16.5879 15.0469 -23.0605 24.3203c45.46 24.2295 76.8301 71.5898 76.8301 126.59c0 27.1699 -8 52.3301 -21.1396 74c-61.3301 -16.3799 -106.86 -71.5498 -106.86 -138c0 -79.4004 64.5996 -144 144 -144s144 64.5996 144 144
c0 67.75 -47.1904 124.35 -110.36 139.61c-4.85547 12.46 -10.9326 24.4453 -18 35.5996zM118 396.22l31.8896 -46.3701c8.5625 1.35449 17.1855 2.08301 26.1104 2.15039c8.9248 -0.0673828 17.5479 -0.795898 26.1104 -2.15039l31.8896 46.3701l-27.2197 19.7803h-61.5605
zM176 32c1.09961 0 2.12012 0.290039 3.20996 0.320312c-12.2061 23.8613 -19.2012 51.0605 -19.21 79.6797c0 76.7598 49.3496 141.58 117.89 165.63c-26.0049 26.1768 -62.0391 42.3701 -101.815 42.3701h-0.0742188c-79.4004 0 -144 -64.5996 -144 -144
s64.5996 -144 144 -144z" />
    <glyph glyph-name="salad" unicode="&#xf81e;" 
d="M495.82 160c9.17969 0 16.9199 -7.71973 16.1201 -16.8398c-6.62012 -76.1602 -58.4502 -139.03 -127.94 -163.65v-11.5098c0 -17.6699 -13.8398 -32 -31.54 -32h-192.25c-0.0166016 0 -0.0332031 0.00292969 -0.0507812 0.00292969
c-17.6943 0 -32.0713 14.3223 -32.1592 31.9971v11.3096c-69.8203 24.46 -121.3 87.4805 -127.94 163.851c-0.799805 9.12012 6.94043 16.8398 16.1201 16.8398h28.3398c-27.0898 23.3398 -44.5195 57.4199 -44.5195 96c0 70.6455 57.3545 128 128 128
c3.61035 0 7.0498 -0.769531 10.6104 -1.07031c17.79 38.3301 56.3896 65.0703 101.39 65.0703s83.5996 -26.7402 101.39 -65.0703c3.56055 0.300781 6.98047 1.07031 10.6104 1.07031c58.3799 0 107 -39.3301 122.25 -92.79c22.9805 -20.5195 37.75 -50.0498 37.75 -83.21
c-0.0546875 -17.168 -4.1084 -33.5273 -11.1797 -48h-5zM480 208c0 44.1533 -35.8467 80 -80 80s-80 -35.8467 -80 -80c0.0976562 -18.0703 6.34473 -34.7715 16.71 -48h126.58c10.3691 13.2266 16.6172 29.9277 16.71 48zM32 256
c0.0771484 -52.9414 43.0547 -95.9092 96 -95.9697h73.3398l-111 111c-1.44727 1.44727 -2.3418 3.44922 -2.3418 5.65625c0 2.20605 0.894531 4.20508 2.3418 5.65332l11.3506 11.29c1.44727 1.44727 3.44922 2.34277 5.65527 2.34277
c2.20703 0 4.20605 -0.895508 5.6543 -2.34277l111 -111v161.37c0 4.41504 3.58496 8 8 8h16c4.41504 0 8 -3.58496 8 -8v-184h43.0898c-7.03711 14.4814 -11.0596 30.8369 -11.0898 48c0.0664062 61.7842 50.2158 111.934 112 112
c8.96973 -0.0859375 17.6582 -1.24902 26 -3.34961c-29.8096 36.4492 -70.9297 38.2793 -106 35.3496c-28 64 -65.8203 64 -80 64c-14.7197 0 -52.1299 -0.269531 -80 -64c-105 8.78027 -128 -60.8701 -128 -96zM373.79 9.66016c53.3496 18.9102 92.5 64.2695 103.62 118.34
h-442.82c11.1504 -54.2695 50.5205 -99.7002 104.18 -118.49l21.2305 -7.50977v-34h192v34.1104z" />
    <glyph glyph-name="sandwich" unicode="&#xf81f;" 
d="M480 416c17.6611 0 32 -14.3389 32 -32v-96c0 -17.6611 -14.3389 -32 -32 -32h-448c-17.6611 0 -32 14.3389 -32 32v96c0 17.6611 14.3389 32 32 32h448zM480 288v96h-448v-96h448zM480 128c17.6611 0 32 -14.3389 32 -32v-96c0 -17.6611 -14.3389 -32 -32 -32h-448
c-17.6611 0 -32 14.3389 -32 32v96c0 17.6611 14.3389 32 32 32h448zM395.15 96h-86.3008l43.1504 -28.7695zM480 0v96h-27.0801l-92 -61.3203c-2.53809 -1.69336 -5.61914 -2.68066 -8.89648 -2.68066s-6.3252 0.987305 -8.86328 2.68066l-92 61.3203h-219.16v-96h448z
M504.16 192.19c4.31934 -0.138672 7.79395 -3.66797 7.83984 -8.01074v-16c0 -0.00195312 0.00488281 -0.00292969 0.00488281 -0.00488281c0 -4.41504 -3.58496 -8 -8 -8c-0.0986328 0 -0.197266 0.00195312 -0.294922 0.00488281
c-30.46 1.32031 -47.5703 9.89062 -62.7998 17.5107c-1.16992 0.579102 -49.4199 32.1396 -113.57 0c-12.2803 -6.15039 -68.2002 -37.0703 -142.34 0c-64.29 32.1396 -112.61 0.579102 -113.78 0c-15.2598 -7.63086 -32.4102 -16.1904 -62.9297 -17.5107
c-0.0976562 -0.00292969 -0.191406 -0.00488281 -0.290039 -0.00488281c-4.41504 0 -8 3.58496 -8 8v0.00488281v16c0.0410156 4.34277 3.51855 7.87207 7.83984 8c23.0703 1.12988 35.1904 7.20996 49.0703 14.1299c74.2197 37.1201 130.3 6.06055 142.399 0
c1.1709 -0.579102 49.5703 -32.1396 113.721 0c74.0898 37.1201 130.1 6.05078 142.189 0c13.8506 -6.92969 25.9404 -13.0098 48.9404 -14.1191z" />
    <glyph glyph-name="sausage" unicode="&#xf820;" 
d="M455.72 375.17c33.1895 -15.0381 56.2324 -48.3984 56.2803 -87.1699c0 -194.09 -157.91 -352 -352 -352c-38.7715 0.0478516 -72.1318 23.0908 -87.1699 56.2803l-44.75 -14.9199c-17.5996 -5.86035 -28.0801 10.5996 -28.0801 20.2393v68.8008
c0 10.3496 10.4902 26.0996 28.0801 20.2393l44.75 -14.9199c15.0381 33.1895 48.3984 56.2324 87.1699 56.2803c88.2197 0 160 71.7803 160 160c0.0478516 38.7715 23.0908 72.1318 56.2803 87.1699l-14.9199 44.75c-0.705078 2.11816 -1.09277 4.38672 -1.09277 6.74023
c0 11.7754 9.55859 21.3359 21.332 21.3398h68.8008c11.7734 -0.00390625 21.3262 -9.56836 21.3262 -21.3438c0 -2.35352 -0.381836 -4.61816 -1.08691 -6.73633zM64 23.0596v17.8809l-32 10.6592v-39.1992zM435.6 416h-39.1992l10.6592 -32h17.8809zM160 -32
c176.45 0 320 143.55 320 320c0 35.3223 -28.6777 64 -64 64s-64 -28.6777 -64 -64c0 -105.87 -86.1299 -192 -192 -192c-35.3223 0 -64 -28.6777 -64 -64s28.6777 -64 64 -64zM400 288c8.83105 0 16 -7.16895 16 -16c0 -132.34 -107.66 -240 -240 -240
c-8.83105 0 -16 7.16895 -16 16s7.16895 16 16 16c114.69 0 208 93.3096 208 208c0 8.83105 7.16895 16 16 16z" />
    </font>
</defs>
</svg>
