<?xml version="1.0" standalone="no"?>
<!DOCTYPE svg PUBLIC "-//W3C//DTD SVG 1.1//EN" "http://www.w3.org/Graphics/SVG/1.1/DTD/svg11.dtd" >
<svg xmlns="http://www.w3.org/2000/svg" xmlns:xlink="http://www.w3.org/1999/xlink" version="1.1">
<metadata>
Created by FontForge 20200314 at Wed Jan 13 11:59:41 2021
 By Robert Madole
Copyright (c) Font Awesome
</metadata>
<!-- Font Awesome Pro 5.15.2 by @fontawesome - https://fontawesome.com License - https://fontawesome.com/license (Commercial License) --><defs>
<font id="FontAwesome5Pro-Solid" horiz-adv-x="512" >
  <font-face 
    font-family="Font Awesome 5 Pro Solid"
    font-weight="900"
    font-stretch="normal"
    units-per-em="512"
    panose-1="2 0 5 3 0 0 0 0 0 0"
    ascent="448"
    descent="-64"
    bbox="-0.0996094 -64.2219 640.1 448.1"
    underline-thickness="25"
    underline-position="-50"
    unicode-range="U+0020-F8FF"
  />
    <missing-glyph />
    <glyph glyph-name="gift" unicode="&#xf06b;" 
d="M32 0v128h192v-160h-160c-17.7002 0 -32 14.2998 -32 32zM288 -32v160h192v-128c0 -17.7002 -14.2998 -32 -32 -32h-160zM480 288c17.7002 0 32 -14.2998 32 -32v-80c0 -8.7998 -7.2002 -16 -16 -16h-480c-8.7998 0 -16 7.2002 -16 16v80c0 17.7002 14.2998 32 32 32
h44.0996c-6.2998 12.0996 -10.0996 25.5 -10.0996 40c0 48.5 39.5 88 88 88c41.5996 0 68.5 -21.2998 103 -68.2998c34.5 47 61.4004 68.2998 103 68.2998c48.5 0 88 -39.5 88 -88c0 -14.5 -3.90039 -27.9004 -10.0996 -40h42.0996zM153.9 288h86.0996
c-51.5 76.7002 -66.2002 80 -86.0996 80c-22.1006 0 -40 -17.9004 -40 -40s17.8994 -40 40 -40zM360 288c22.0996 0 40 17.9004 40 40s-17.9004 40 -40 40c-20.4004 0 -34.7002 -3.5 -86.0996 -80h86.0996z" />
    <glyph glyph-name="signature" unicode="&#xf5b7;" horiz-adv-x="640" 
d="M623.2 256c9.09961 0.599609 16.7998 -7.09961 16.5996 -16.2002v-32.0996c0 -8.5 -6.7002 -15.1006 -15.2002 -15.7998c-39.3994 -3.2002 -105.399 -51 -138.399 -65.8008c-34.2998 -15.3994 -66.7002 -30 -102.3 -30c-28.2002 0 -50.2002 8.5 -65.5 25.3008
c-22.7002 24.8994 -22.8008 55.2998 -20.6006 83.7998c-56.5 -45.1006 -169 -153.601 -211.2 -195.8c-6.09961 -6.2002 -14.2998 -9.40039 -22.5996 -9.40039c-27 0 -36.5 27 -29.7002 43.9004l98.2002 245.6c8 19.9004 -14.2998 38.7998 -32.7002 27.0996l-58 -38.8994
c-7.5 -4.7998 -17.3994 -2.60059 -22.0996 4.89941l-17.2002 27c-4.7002 7.5 -2.5 17.4004 4.90039 22.1006l54.8994 36.8994c76.5 48.7002 160.101 -26.8994 129.7 -102.8l-41.5 -103.7c105.2 101.2 144.4 124.5 169.5 126
c54.4004 3.10059 43.7998 -68.0996 42.7002 -76.0996c-4.7002 -35.7002 -1.2998 -51.9004 21.2998 -51.9004c21.9004 0 47 11.3008 76.0996 24.4004c37.4004 16.7998 111.301 68 163.101 71.5z" />
    <glyph glyph-name="baby-carriage" unicode="&#xf77d;" 
d="M144.8 431l111.2 -175h-256c0 74 35.2998 140.1 90.7998 184.4c16.7998 13.3994 42.7002 8.39941 54 -9.40039zM496 352c8.7998 0 16 -7.2002 16 -16v-32c0 -8.7998 -7.2002 -16 -16 -16h-48v-64c0 -50.5996 -23 -96.4004 -60.2998 -130.7
c34.5996 -8.89941 60.2998 -40 60.2998 -77.2998c0 -44.2002 -35.7998 -80 -80 -80s-80 35.7998 -80 80c0 8.90039 1.7002 17.2002 4.40039 25.2002c-21.5 -5.90039 -44.6006 -9.2002 -68.4004 -9.2002s-46.7998 3.2998 -68.4004 9.2002
c2.60059 -8 4.40039 -16.2998 4.40039 -25.2002c0 -44.2002 -35.7998 -80 -80 -80s-80 35.7998 -80 80c0 37.2998 25.7002 68.4004 60.2998 77.2998c-37.2998 34.2998 -60.2998 80.1006 -60.2998 130.7h384v64c0 35.2998 28.7002 64 64 64h48zM80 -16
c17.5996 0 32 14.4004 32 32s-14.4004 32 -32 32s-32 -14.4004 -32 -32s14.4004 -32 32 -32zM400 16c0 17.5996 -14.4004 32 -32 32s-32 -14.4004 -32 -32s14.4004 -32 32 -32s32 14.4004 32 32z" />
    <glyph glyph-name="bells" unicode="&#xf77f;" horiz-adv-x="640" 
d="M242 194.1c9.2998 -25.5996 5.7002 -15.6992 15.5 -42.6992c22.7998 -62.6006 11.7002 -89 3.2998 -108.2l-243.3 88.5996c-22.5 8.2002 -23.0996 38.5 -3 48.7998c21 10.7002 58.2002 24.9004 87.4004 105c0.699219 2.2002 14.5996 40.5 15.3994 42.6006
c25.2002 69.2002 101.7 104.899 171 79.7998c9.90039 -3.59961 18.9004 -8.5 27.4004 -14.0996c-68.7002 -39.2002 -101.601 -123.101 -73.7002 -199.801zM138.1 3.7998c-27.6992 10.1006 -43.8994 37.2998 -41.5996 65.2002l115.4 -42
c-16.3008 -22.9004 -46.2002 -33.2998 -73.8008 -23.2002zM501.9 -28.2002c-27.6006 -10 -57.5 0.400391 -73.8008 23.2002l115.4 42c2.2998 -28 -14 -55.0996 -41.5996 -65.2002zM625.6 148.6c21.8008 -11.1992 17.4004 -41.2998 -3.09961 -48.7998l-300.6 -109.399
c-22.5 -8.2002 -42.5 14.6992 -33.7002 35.3994c9.2002 21.7002 28.7002 56.5 -0.5 136.601c-0.799805 2.19922 -14.7998 40.5 -15.6006 42.5996c-25.1992 69.2002 10.5 145.7 79.7002 170.9c69.2002 25.1992 145.7 -10.5 171 -79.7002
c0.700195 -2.10059 14.6006 -40.4004 15.4004 -42.6006c29.0996 -80.0996 66.3994 -94.2998 87.3994 -105z" />
    <glyph glyph-name="blog" unicode="&#xf781;" 
d="M172.2 221.2c75.5 -15 129.899 -89.2998 112.5 -172.2c-11.4004 -54.2998 -55.2998 -98.2998 -109.7 -109.7c-92.9004 -19.5 -175 51.2002 -175 140.7v248c0 13.2998 10.7002 24 24 24h48c13.2998 0 24 -10.7002 24 -24v-248c0 -26.5 21.5 -48 48 -48s48 21.5 48 48
c0 20.5996 -13.0996 38.2002 -31.2998 45c-9.60059 3.59961 -16.7002 11.7998 -16.7002 22v50.4004c0 14.8994 13.5996 26.6992 28.2002 23.7998zM209 448c163.2 -8.59961 294.4 -139.8 302.9 -303c0.5 -9.2002 -6.80078 -17 -16 -17h-32.1006
c-8.39941 0 -15.3994 6.59961 -15.8994 15c-7.5 129.5 -111.5 234.5 -240.9 241.5c-8.40039 0.400391 -15 7.40039 -15 15.9004v31.5996c0 9.2002 7.7998 16.5 17 16zM209.3 352c110.101 -8.5 198.2 -96.5996 206.601 -206.7
c0.699219 -9.2998 -6.80078 -17.2998 -16.1006 -17.2998h-32.2002c-8.2998 0 -15.0996 6.40039 -15.8994 14.7002c-6.90039 77 -68.1006 138.899 -144.9 145.2c-8.2998 0.599609 -14.7998 7.5 -14.7998 15.8994v32.1006c0 9.39941 8 16.7998 17.2998 16.0996z" />
    <glyph glyph-name="boot" unicode="&#xf782;" 
d="M0 -32v32h512v-32l-32 -32h-64l-32 32l-32 -32h-64l-32 32l-32 -32h-64l-32 32l-32 -32h-64zM352 368c0 -8.7998 -7.2002 -16 -16 -16h-336v80c0 8.7998 7.2002 16 16 16h320c8.7998 0 16 -7.2002 16 -16v-64zM439.3 162.2
c42.7002 -10.7002 72.7002 -49.1006 72.7002 -93.2002v-37h-512v288h320v-32h-56c-4.40039 0 -8 -3.59961 -8 -8v-16c0 -4.40039 3.59961 -8 8 -8h56v-32h-56c-4.40039 0 -8 -3.59961 -8 -8v-16c0 -4.40039 3.59961 -8 8 -8h56z" />
    <glyph glyph-name="cash-register" unicode="&#xf788;" 
d="M511.1 69.2002c0.600586 -3.5 0.900391 -7 0.800781 -10.5v-90.7002c0 -17.7002 -14.3008 -32 -32 -32h-448c-17.7002 0 -32 14.2998 -32 32v90.7998c0 3.5 0.299805 7 0.899414 10.5l26.7002 160c2.59961 15.4004 16 26.7002 31.5996 26.7002h84.9004v64h-96
c-8.7998 0 -16 7.2002 -16 16v96c0 8.7998 7.2002 16 16 16h256c8.7998 0 16 -7.2002 16 -16v-96.0996c0 -8.80078 -7.2002 -16 -16 -16h-96v-64h244.8c15.7002 0 29 -11.3008 31.6006 -26.7002zM280 200v-16c0 -8.7998 7.2002 -16 16 -16h16c8.7998 0 16 7.2002 16 16v16
c0 8.7998 -7.2002 16 -16 16h-16c-8.7998 0 -16 -7.2002 -16 -16zM248 136c-8.7998 0 -16 -7.2002 -16 -16v-16c0 -8.7998 7.2002 -16 16 -16h16c8.7998 0 16 7.2002 16 16v16c0 8.7998 -7.2002 16 -16 16h-16zM216 216h-16c-8.7998 0 -16 -7.2002 -16 -16v-16
c0 -8.7998 7.2002 -16 16 -16h16c8.7998 0 16 7.2002 16 16v16c0 8.7998 -7.2002 16 -16 16zM80 368h192v32h-192v-32zM120 168c8.7998 0 16 7.2002 16 16v16c0 8.7998 -7.2002 16 -16 16h-16c-8.7998 0 -16 -7.2002 -16 -16v-16c0 -8.7998 7.2002 -16 16 -16h16zM136 104
c0 -8.7998 7.2002 -16 16 -16h16c8.7998 0 16 7.2002 16 16v16c0 8.7998 -7.2002 16 -16 16h-16c-8.7998 0 -16 -7.2002 -16 -16v-16zM352 -8v16c0 4.40039 -3.59961 8 -8 8h-176c-4.40039 0 -8 -3.59961 -8 -8v-16c0 -4.40039 3.59961 -8 8 -8h176c4.40039 0 8 3.59961 8 8
zM376 104v16c0 8.7998 -7.2002 16 -16 16h-16c-8.7998 0 -16 -7.2002 -16 -16v-16c0 -8.7998 7.2002 -16 16 -16h16c8.7998 0 16 7.2002 16 16zM424 184v16c0 8.7998 -7.2002 16 -16 16h-16c-8.7998 0 -16 -7.2002 -16 -16v-16c0 -8.7998 7.2002 -16 16 -16h16
c8.7998 0 16 7.2002 16 16z" />
    <glyph glyph-name="chart-network" unicode="&#xf78a;" horiz-adv-x="640" 
d="M576 256c-35.2998 0 -64 28.7002 -64 64s28.7002 64 64 64s64 -28.7002 64 -64s-28.7002 -64 -64 -64zM64 208c35.2998 0 64 -28.7002 64 -64s-28.7002 -64 -64 -64s-64 28.7002 -64 64s28.7002 64 64 64zM513.6 245.2l-48 -36l-19.1992 25.5996l48 36zM576 64
c35.2998 0 64 -28.7002 64 -64s-28.7002 -64 -64 -64s-64 28.7002 -64 64c0 3.2998 0.5 6.59961 1 9.7998l-95.7998 57.5c-20.4004 -21.5996 -49.1006 -35.2998 -81.2002 -35.2998c-61.9004 0 -112 50.0996 -112 112c0 36.2002 17.5 68.0996 44.2002 88.5l-41 87.7998
c-1.10059 0 -2.10059 -0.299805 -3.2002 -0.299805c-35.2998 0 -64 28.7002 -64 64s28.7002 64 64 64s64 -28.7002 64 -64c0 -16.7998 -6.59961 -32 -17.2002 -43.4004l40.7998 -87.3994c7.80078 1.7998 16 2.89941 24.4004 2.89941c61.9004 0 112 -50.0996 112 -112
c0 -12.5 -2.5 -24.2998 -6.2998 -35.5l96 -57.5996c10.7002 8 23.8994 13 38.2998 13zM336 96c26.5 0 48 21.5 48 48s-21.5 48 -48 48s-48 -21.5 -48 -48s21.5 -48 48 -48zM152 128v32h48v-32h-48z" />
    <glyph glyph-name="chimney" unicode="&#xf78b;" 
d="M480 448c17.7002 0 32 -14.2998 32 -32v-128c0 -17.7002 -14.2998 -32 -32 -32h-448c-17.7002 0 -32 14.2998 -32 32v128c0 17.7002 14.2998 32 32 32h448zM32 -64v128h288v-128h-288zM192 96v128h288v-128h-288zM32 224h128v-128h-128v128zM352 -64v128h128v-128h-128z
" />
    <glyph glyph-name="compress-arrows-alt" unicode="&#xf78c;" 
d="M200 160c13.2998 0 24 -10.7002 24 -24v-112c0 -21.4004 -25.7998 -32.0996 -40.9004 -17l-31.0996 33l-99.2998 -99.2998c-6.2002 -6.2002 -16.4004 -6.2002 -22.6006 0l-25.3994 25.3994c-6.2002 6.2002 -6.2002 16.4004 0 22.6006l99.2002 99.2998l-32.9004 31
c-15.0996 15.2002 -4.40039 41 17 41h112zM312 224c-13.2998 0 -24 10.7002 -24 24v112c0 21.4004 25.7998 32.0996 40.9004 17l31.0996 -33l99.2998 99.2998c6.2002 6.2002 16.4004 6.2002 22.6006 0l25.3994 -25.3994c6.2002 -6.2002 6.2002 -16.4004 0 -22.6006
l-99.2998 -99.2998l33 -31c15.0996 -15.0996 4.40039 -41 -17 -41h-112zM408 88l99.2998 -99.4004c6.2002 -6.19922 6.2002 -16.3994 0 -22.5996l-25.3994 -25.4004c-6.2002 -6.19922 -16.4004 -6.19922 -22.6006 0l-99.2998 99.3008l-31 -32.9004
c-15.0996 -15.0996 -41 -4.40039 -41 17v112c0 13.2998 10.7002 24 24 24h112c21.4004 0 32.0996 -25.7998 17 -40.9004zM183 376.9c15.0996 15.0996 41 4.39941 41 -16.9004v-112c0 -13.2998 -10.7002 -24 -24 -24h-112c-21.4004 0 -32.0996 25.7998 -17 40.9004
l33 31.0996l-99.2998 99.2998c-6.2002 6.2002 -6.2002 16.4004 0 22.6006l25.3994 25.3994c6.2002 6.2002 16.4004 6.2002 22.6006 0l99.2998 -99.2998z" />
    <glyph glyph-name="deer" unicode="&#xf78e;" 
d="M488.7 314.7c13.7002 -3.90039 23.2998 -16.5 23.2998 -30.7998v-27.9004c0 -17.7002 -14.2998 -32 -32 -32h-64l-32 -64v-208c0 -8.7998 -7.2002 -16 -16 -16h-64c-8.7998 0 -16 7.2002 -16 16v144h-157.3l-19.4004 -51.7002l26.2998 -88.3994
c2.5 -10.1006 -5.09961 -19.9004 -15.5 -19.9004h-63.7998c-7.2998 0 -13.7002 5 -15.5 12.0996l-24.8994 82.5c-3.10059 12.6006 -2.40039 25.8008 2.19922 38l11.9004 31.8008v48.8994l-32 -21.2998v64c0 35.2998 28.7002 64 64 64h240l33.7998 67.7998l-78.8994 22.2002
c-20.7002 5.7998 -35 24.7002 -35 46.2002v47.7998c0 4.40039 3.59961 8 8 8h16c4.39941 0 8 -3.59961 8 -8v-47.7998c0 -7.2002 4.7998 -13.5 11.6992 -15.4004l16.1006 -4.5l16.7998 20.9004c2.2998 2.89941 3.5 6.39941 3.5 10v36.7998c0 4.40039 3.59961 8 8 8h16
c4.40039 0 8 -3.59961 8 -8v-36.7998c0 -10.9004 -3.7002 -21.5 -10.5 -30l-8.2998 -10.2998l33.7998 -9.5l42.5996 21.2998c7.5 3.7002 13.9004 9.2998 18.5 16.2998l18 27.2002c2.5 3.7002 7.40039 4.7002 11.1006 2.2002l13.2998 -8.90039
c3.7002 -2.5 4.7002 -7.40039 2.2002 -11.0996l-18.1006 -27.2002c-7.69922 -11.5 -18.2998 -20.9004 -30.6992 -27.1006l-11.1006 -5.59961zM416 272c8.7998 0 16 7.2002 16 16s-7.2002 16 -16 16s-16 -7.2002 -16 -16s7.2002 -16 16 -16z" />
    <glyph glyph-name="deer-rudolph" unicode="&#xf78f;" 
d="M480 352c17.7002 0 32 -14.2998 32 -32s-14.2998 -32 -32 -32c-0.200195 0 -0.5 0.0996094 -0.700195 0.0996094c0.200195 -1.39941 0.700195 -2.69922 0.700195 -4.19922v-27.9004c0 -17.7002 -14.2998 -32 -32 -32h-64l-32 -64v-208c0 -8.7998 -7.2002 -16 -16 -16h-64
c-8.7998 0 -16 7.2002 -16 16v144h-125.3l-19.4004 -51.7002l26.2998 -88.3994c2.5 -10.1006 -5.09961 -19.9004 -15.5 -19.9004h-63.7998c-7.2998 0 -13.7002 5 -15.5 12.0996l-24.8994 82.5c-3.10059 12.6006 -2.40039 25.8008 2.19922 38l11.9004 31.8008v48.8994
l-32 -21.2998v64c0 35.2998 28.7002 64 64 64h208l33.7998 67.7998l-78.8994 22.2002c-20.7002 5.7998 -35 24.7002 -35 46.2002v47.7998c0 4.40039 3.59961 8 8 8h16c4.39941 0 8 -3.59961 8 -8v-47.7998c0 -7.2002 4.7998 -13.5 11.6992 -15.4004l16.1006 -4.5
l16.7998 20.9004c2.2998 2.89941 3.5 6.39941 3.5 10v36.7998c0 4.40039 3.59961 8 8 8h16c4.40039 0 8 -3.59961 8 -8v-36.7998c0 -10.9004 -3.7002 -21.5 -10.5 -30l-8.2998 -10.2998l33.7998 -9.5l42.5996 21.2998c7.5 3.7002 13.9004 9.2998 18.5 16.2998l18 27.2002
c2.5 3.7002 7.40039 4.7002 11.1006 2.2002l13.2998 -8.90039c3.7002 -2.5 4.7002 -7.40039 2.2002 -11.0996l-18.1006 -27.2002c-7.69922 -11.5 -18.2998 -20.9004 -30.6992 -27.1006l-11.1006 -5.59961l83.7998 -23.5c-0.0996094 1 -0.599609 1.90039 -0.599609 3
c0 17.7002 14.2998 32 32 32zM384 272c8.7998 0 16 7.2002 16 16s-7.2002 16 -16 16s-16 -7.2002 -16 -16s7.2002 -16 16 -16z" />
    <glyph glyph-name="dreidel" unicode="&#xf792;" horiz-adv-x="448" 
d="M19.5996 224l58.9004 58.9004l236.4 -236.4l-58.9004 -58.9004c-12.5996 -12.5996 -29.5996 -19.5996 -47.2998 -19.5996h-141.8c-37 0 -66.9004 29.9004 -66.9004 66.9004v141.8c0 17.7998 7 34.7998 19.5996 47.2998zM443.3 388.7
c6.2998 -6.2998 6.2998 -16.4004 0 -22.7002l-109 -109l72 -71.9004c13.1006 -13.0996 13.1006 -34.1992 0 -47.2998l-68.7002 -68.7002l-236.399 236.4l68.7002 68.7002c13.0996 13.0996 34.1992 13.0996 47.2998 0l71.8994 -71.9004l109 109
c6.2002 6.2002 16.4004 6.2002 22.6006 0z" />
    <glyph glyph-name="dumpster" unicode="&#xf793;" horiz-adv-x="576" 
d="M560 288h-97.2998l-25.6006 128h98.9004c7.2998 0 13.7002 -5 15.5 -12.0996l24 -96c2.5 -10.1006 -5.09961 -19.9004 -15.5 -19.9004zM272 416v-128h-126.1l25.5996 128h100.5zM404.5 416l25.5996 -128h-126.1v128h100.5zM16 288c-10.4004 0 -18 9.7998 -15.5 19.9004
l24 96c1.7998 7.09961 8.2002 12.0996 15.5 12.0996h98.9004l-25.6006 -128h-97.2998zM560 224c8.7998 0 16 -7.2002 16 -16v-32c0 -8.7998 -7.2002 -16 -16 -16h-28l-20 -160v-16c0 -8.7998 -7.2002 -16 -16 -16h-32c-8.7998 0 -16 7.2002 -16 16v16h-320v-16
c0 -8.7998 -7.2002 -16 -16 -16h-32c-8.7998 0 -16 7.2002 -16 16v16l-20 160h-28c-8.7998 0 -16 7.2002 -16 16v32c0 8.7998 7.2002 16 16 16h20l-4 32h512l-4 -32h20z" />
    <glyph glyph-name="dumpster-fire" unicode="&#xf794;" horiz-adv-x="640" 
d="M418.7 343.9c-19.7002 -17.6006 -37.7002 -36.5 -53.9004 -55.8008h-60.7998v128h100.5l14.4004 -72zM272 416v-128h-126.1l25.5996 128h100.5zM461.3 343.9l-11.8994 10.5996l-12.3008 61.5h98.9004c7.2998 0 13.7002 -5 15.4004 -12.0996l24 -96
c0.199219 -0.800781 -0.100586 -1.5 0 -2.30078c-1 1 -2 2.2002 -3.10059 3.10059l-21.2998 19l-21.2998 -19c-5.90039 -5.2002 -11.6006 -10.7002 -17.2998 -16.2998c-15.6006 17.7998 -32.9004 35.1992 -51.1006 51.5zM16 288c-10.4004 0 -18 9.7998 -15.5 19.9004l24 96
c1.7998 7.09961 8.2002 12.0996 15.5 12.0996h98.9004l-25.6006 -128h-97.2998zM340.6 256c-32.6992 -46.7002 -52.5996 -93.7002 -52.5996 -129.6c0 -48.5 18.5996 -92.7002 48.7998 -126.4h-208.8v-16c0 -8.7998 -7.2002 -16 -16 -16h-32c-8.7998 0 -16 7.2002 -16 16v16
l-20 160h-28c-8.7998 0 -16 7.2002 -16 16v32c0 8.7998 7.2002 16 16 16h20l-4 32h308.6zM551.1 284.8c51.8008 -46.2002 88.9004 -121.8 88.8008 -158.399c0 -87.5 -71.6006 -158.4 -160 -158.4c-88.4004 0 -160 70.9004 -160 158.4c0 49.2998 49.7998 130.899 120 193.6
c27.3994 -24.4004 51.5 -50.5996 71 -76.4004c11.8994 14 25.2998 27.9004 40.1992 41.2002zM532.5 55.4004c33.4004 24.1992 41.2002 71.0996 22.5996 107.8c-2.2998 4.5 -4.89941 9.2002 -7.69922 14l-39.8008 -47s-62.3994 82.5 -67.0996 88.0996
c-32.9004 -40.8994 -49.4004 -64.7998 -49.4004 -91.8994c0 -54.5 39.9004 -88 88.9004 -88c19.5996 0 37.7998 6.2998 52.5 17z" />
    <glyph glyph-name="ear-muffs" unicode="&#xf795;" horiz-adv-x="640" 
d="M152 224c22.0996 0 40 -17.9004 40 -40.2002c0 -10 -4.09961 -19 -10.2002 -26c6.10059 -7 10.2002 -15.8994 10.2002 -26.0996c0 -9.90039 -3.5 -18.9004 -9.59961 -25.9004c6.09961 -7 9.59961 -16 9.59961 -25.8994c0 -9.90039 -3.5 -18.9004 -9.59961 -25.9004
c6.09961 -7 9.59961 -16.2998 9.59961 -26.2002c0 -10 -4 -18.8994 -10.0996 -25.8994c6.09961 -7 10.0996 -15.9004 10.0996 -25.9004c0 -22.0996 -17.9004 -40 -40 -40c-11.7998 0 -22.2002 5.2998 -29.5 13.5c-6.5 -4.40039 -14.2002 -6.7998 -22.0996 -6.7998
c-5.10059 0 -9.90039 1 -15 2.89941c-11.9004 5.10059 -20.2002 14.7002 -23.4004 26.2002c-11.9004 0 -23.7002 4.7998 -31.7002 14.7002c-8 9.59961 -10.5996 22.0996 -8 33.2998c-10.5 5.40039 -18.5 15 -21.3994 27.2002c-2.5 12.2002 0.699219 24.2998 7.69922 33.2998
c-7.09961 9.2998 -10.2998 21.1006 -7.39941 33.2998c2.5 12.2002 10.8994 21.8008 21.0996 26.9004c-2.2998 11.5 0.299805 23.7002 8.2998 33.5996c8.30078 9.60059 19.9004 14.7002 31.7002 14.4004c3.5 11.5 11.9004 21.4004 23.7002 26.2002
c12.5996 4.89941 25.7998 2.5 36.4004 -4.40039c7.2998 8.2998 17.6992 13.7002 29.5996 13.7002zM639.1 113c2.60059 -12.2002 -0.599609 -24.4004 -7.7998 -33.0996c7.10059 -9 10.2998 -21.1006 7.40039 -33.3008c-2.90039 -12.1992 -10.9004 -21.7998 -21.1006 -26.8994
c2.30078 -11.5 -0.299805 -23.7002 -8.2998 -33.6006c-8.2998 -9.59961 -20.2002 -14.6992 -32 -14.3994c-3.2002 -11.5 -11.5996 -21.4004 -23.3994 -25.9004c-4.80078 -2.2998 -9.90039 -2.89941 -14.7002 -2.89941c-7.90039 0 -15.5 2.2998 -22 6.5
c-7.2998 -8 -17.6006 -13.2002 -29.2998 -13.2002c-22.1006 0 -40 17.8994 -40 40c0 10 4.09961 19 10.1992 26c-6.09961 7 -10.1992 15.8994 -10.1992 26.0996c0 9.90039 3.5 18.9004 9.59961 25.9004c-6.09961 7 -9.59961 16 -9.59961 25.8994
c0 9.90039 3.5 18.9004 9.59961 25.9004c-6.09961 7 -9.59961 16 -9.59961 25.9004c0 10.1992 4.09961 19.0996 10.1992 26.0996c-6.09961 7 -10.1992 15.9004 -10.1992 26c0 22.0996 17.8994 40 40 40c12.0996 0 22.5996 -5.7002 29.8994 -14.0996
c10.7002 7 24.1006 9.5 36.7998 4.5c11.9004 -4.80078 20.2002 -14.7002 23.4004 -26.2002c11.9004 0 23.7002 -4.7998 31.7002 -14.7002c8 -9.59961 10.5996 -22.0996 8 -33.5996c10.5 -5.10059 18.5 -14.7002 21.3994 -26.9004zM506.3 253.5
c-20.5 83.9004 -96.0996 146.5 -186.3 146.5s-165.8 -62.5996 -186.3 -146.6c-5.5 -1.5 -10.9004 -3.7002 -16 -6.5c-5.90039 1.5 -11.9004 2.2998 -18 2.2998c-5.5 0 -10.9004 -0.799805 -16.2002 -2.10059c18.7998 113.801 117.5 200.9 236.5 200.9
s217.8 -87.2002 236.5 -201c-5.2002 1.2002 -10.4004 2 -15.7002 2c-6.09961 0 -12.0996 -0.799805 -18 -2.2998c-5.2002 3 -10.7998 5.2002 -16.5 6.7998z" />
    <glyph glyph-name="ethernet" unicode="&#xf796;" 
d="M496 256c8.7998 0 16 -7.2002 16 -16v-224c0 -8.7998 -7.2002 -16 -16 -16h-80v128h-32v-128h-64v128h-32v-128h-64v128h-32v-128h-64v128h-32v-128h-80c-8.7998 0 -16 7.2002 -16 16v224c0 8.7998 7.2002 16 16 16h48v48c0 8.7998 7.2002 16 16 16h48v48
c0 8.7998 7.2002 16 16 16h224c8.7998 0 16 -7.2002 16 -16v-48h48c8.7998 0 16 -7.2002 16 -16v-48h48z" />
    <glyph glyph-name="fireplace" unicode="&#xf79a;" horiz-adv-x="640" 
d="M32 -64v384h576v-384h-96v128c0 106 -86 192 -192 192s-192 -86 -192 -192v-128h-96zM342.3 136.4c8.5 10.1992 18.2002 20.3994 28.9004 30c37.2998 -33.6006 64 -88.6006 64 -115.2c0 -63.6006 -51.6006 -115.2 -115.2 -115.2s-115.2 51.5996 -115.2 115.2
c0 35.7998 35.9004 95.2002 86.4004 140.8c19.7002 -17.7998 37.0996 -36.7998 51.0996 -55.5996zM357.8 -0.5c24.1006 17.5996 29.7002 51.7998 16.2998 78.4004c-1.59961 3.2998 -3.5 6.69922 -5.5 10.1992l-28.6992 -34.1992s-44.9004 60 -48.3008 64.0996
c-23.6992 -29.7002 -35.5996 -47.0996 -35.5996 -66.7998c0 -39.6006 28.7002 -64 64 -64c14.0996 0 27.2002 4.59961 37.7998 12.2998zM624 448c8.7998 0 16 -7.2002 16 -16v-64c0 -8.7998 -7.2002 -16 -16 -16h-608c-8.7998 0 -16 7.2002 -16 16v64
c0 8.7998 7.2002 16 16 16h608z" />
    <glyph glyph-name="frosty-head" unicode="&#xf79b;" horiz-adv-x="384" 
d="M320 432v-192h-256v192c0 8.7998 7.2002 16 16 16h224c8.7998 0 16 -7.2002 16 -16zM368 208c8.7998 0 16 -7.2002 16 -16v-16c0 -8.7998 -7.2002 -16 -16 -16h-24.7002c6.2002 -13.0996 11.1006 -26.9004 13.7002 -41.4004
c12.7002 -70.1992 -18.0996 -133.8 -69.5 -169.6c-12 -8.40039 -26.4004 -13 -41.0996 -13h-109.601c-12.0996 0 -24.3994 2.59961 -34.5996 9.09961c-46.9004 29.9004 -78.2002 82.1006 -78.2002 142c0 26.1006 5.90039 50.8008 16.4004 72.9004h-24.4004
c-8.7998 0 -16 7.2002 -16 16v16c0 8.7998 7.2002 16 16 16h352zM130.7 85.2998c11.7002 0 21.2998 9.60059 21.2998 21.2998c0 11.7002 -9.5 21.3008 -21.2998 21.3008c-11.7002 0 -21.2998 -9.5 -21.2998 -21.3008c0 -11.6992 9.5 -21.2998 21.2998 -21.2998zM192 -16
c0 0 32 46.2998 32 64s-14.2998 32 -32 32s-32 -14.2998 -32 -32s32 -64 32 -64zM253.3 85.2998c11.7998 0 21.4004 9.60059 21.2998 21.2998c0 11.7002 -9.5 21.3008 -21.2998 21.3008c-11.7002 0 -21.2998 -9.5 -21.2998 -21.3008
c0 -11.6992 9.5 -21.2998 21.2998 -21.2998z" />
    <glyph glyph-name="gifts" unicode="&#xf79c;" horiz-adv-x="640" 
d="M240.6 253.9c-27.7998 -6.90039 -48.5996 -32 -48.5996 -61.9004v-224c0 -11.7002 3.40039 -22.5 8.90039 -32h-168.9c-17.7002 0 -32 14.2998 -32 32v352c0 17.7002 14.2998 32 32 32h29.4004l-30.7002 22c-7.2002 5.09961 -8.7998 15.0996 -3.7002 22.2998l9.2998 13
c5.10059 7.2002 15.1006 8.7998 22.2998 3.7002l32.1006 -22.7998l-11.5 30.5996c-3.2002 8.2002 1 17.5 9.2998 20.6006l15 5.59961c8.2998 3.09961 17.5 -1.09961 20.5996 -9.40039l19.9004 -53.0996l19.9004 53c3.09961 8.2998 12.2998 12.5 20.5996 9.40039l15 -5.60059
c8.2998 -3.09961 12.5 -12.2998 9.40039 -20.5996l-11.5 -30.6006l32 22.9004c7.19922 5.2002 17.1992 3.5 22.2998 -3.7002l9.2998 -13c5.2002 -7.2002 3.5 -17.2002 -3.7002 -22.2998l-30.7002 -22h29.4004c12.7002 0 23.4004 -7.5 28.5996 -18.2998
c-26.6992 -18.6006 -42.0996 -49 -44 -79.7998zM224 -32v96h192v-128h-160c-17.7002 0 -32 14.2998 -32 32zM448 -64v128h192v-96c0 -17.7002 -14.2998 -32 -32 -32h-160zM608 224c17.7002 0 32 -14.2998 32 -32v-96h-192v128h-15.2998l-0.700195 0.200195
l-0.700195 -0.200195h-15.2998v-128h-192v96c0 17.7002 14.2998 32 32 32h20.4004c-2.7002 7.59961 -4.40039 15.5 -4.40039 23.7998c0 35.5 27 72.2002 72.0996 72.2002c48 0 75.8008 -47.7002 87.9004 -75.2998c12 27.5996 39.7998 75.2998 87.9004 75.2998
c45.0996 0 72.0996 -36.7002 72.0996 -72.2002c0 -8.2998 -1.7998 -16.2002 -4.40039 -23.7998h20.4004zM336 224h52.5996c-8.89941 20.5996 -25.7998 48 -44.5 48c-17.6992 0 -24.0996 -14.5 -24.0996 -24.2002c0 -5.2002 1.5 -12.5996 8.7998 -19
c2.10059 -1.7998 4.5 -3.39941 7.2002 -4.7998zM535.2 228.8c7.2998 6.40039 8.7998 13.7998 8.7998 19c0 9.7002 -6.40039 24.2002 -24.0996 24.2002c-18.7002 0 -35.7002 -27.7002 -44.5 -48h52.5996c2.7002 1.40039 5.09961 3 7.2002 4.7998z" />
    <glyph glyph-name="gingerbread-man" unicode="&#xf79d;" horiz-adv-x="416" 
d="M322.2 144c-10 0 -18.2002 -8.2002 -18 -18.2998c0 -4.2998 1.5 -8.40039 4.2002 -11.7002l58.1992 -69.7998c23.3008 -27.9004 21.6006 -72.2998 -7.09961 -94.7002c-11.5996 -9.09961 -25.5 -13.5 -39.2998 -13.5c-18.4004 0 -36.5 7.7998 -49.2002 23
l-38.2998 45.9004c-12.7998 15.3994 -36.4004 15.3994 -49.2002 0l-38.2998 -45.9004c-12.7002 -15.2002 -30.9004 -23 -49.2002 -23c-13.7998 0 -27.7002 4.40039 -39.2998 13.5996c-28.7002 22.3008 -30.4004 66.8008 -7.10059 94.7002l58.2002 69.7998
c2.7002 3.30078 4.2002 7.40039 4.2002 11.7002c0 10 -8.09961 18.2002 -18.2002 18.2002h-29.7998c-38.9004 0 -69.5996 34.7002 -63.0996 74.7998c5.09961 31.4004 34.5996 53.2002 66.5 53.2002h65.7998c7.2002 0 10.5 8.5 5.5 13.7002
c-16.5 17.2002 -26.7002 40.5996 -26.7002 66.2998c0 58.9004 53 105.4 114.1 94.4004c37.5 -6.80078 68.5 -37.1006 76 -74.6006c6.7002 -33.5 -4.09961 -64.7002 -24.8994 -86.2998c-5 -5.09961 -1.60059 -13.5 5.5 -13.5h65.8994
c31.8008 0 61.4004 -21.7002 66.5 -53.2002c6.5 -40.0996 -24.1992 -74.7998 -63.0996 -74.7998h-29.7998zM176 352c8.7998 0 16 7.2002 16 16s-7.2002 16 -16 16s-16 -7.2002 -16 -16s7.2002 -16 16 -16zM208 80c8.7998 0 16 7.2002 16 16s-7.2002 16 -16 16
s-16 -7.2002 -16 -16s7.2002 -16 16 -16zM208 144c8.7998 0 16 7.2002 16 16s-7.2002 16 -16 16s-16 -7.2002 -16 -16s7.2002 -16 16 -16zM208 208c8.7998 0 16 7.2002 16 16s-7.2002 16 -16 16s-16 -7.2002 -16 -16s7.2002 -16 16 -16zM240 352c8.7998 0 16 7.2002 16 16
s-7.2002 16 -16 16s-16 -7.2002 -16 -16s7.2002 -16 16 -16z" />
    <glyph glyph-name="glass-champagne" unicode="&#xf79e;" horiz-adv-x="256" 
d="M216 -16c22.0996 0 40 -17.9004 40 -40c0 -4.40039 -3.59961 -8 -8 -8h-240c-4.40039 0 -8 3.59961 -8 8c0 22.0996 17.9004 40 40 40h56v116.3c-60.7002 15.2002 -103.3 72 -95 135.4l27 184.899c2.2998 15.7002 15.7998 27.4004 31.7002 27.4004h136.6
c15.9004 0 29.4004 -11.7002 31.7002 -27.4004l27 -184.899c8.2998 -63.4004 -34.2998 -120.2 -95 -135.4v-116.3h56zM61.7998 320h132.4l-11.7002 80h-109z" />
    <glyph glyph-name="glass-cheers" unicode="&#xf79f;" horiz-adv-x="640" 
d="M639.4 14.4004c1.69922 -4.10059 -0.300781 -8.7002 -4.30078 -10.4004l-162.399 -67.4004c-4 -1.69922 -8.7002 0.200195 -10.4004 4.30078c-8.5 20.3994 1.2002 43.7998 21.6006 52.2998l22.0996 9.2002l-39.2998 103.6
c-4.40039 -0.5 -8.7998 -1.2998 -13.1006 -1.2998c-51.6992 0 -99.3994 33.0996 -113.399 85.2998l-20.2002 75.4004l-20.2002 -75.4004c-14 -52.2002 -61.7002 -85.2998 -113.399 -85.2998c-4.30078 0 -8.7002 0.799805 -13.1006 1.2998l-39.3994 -103.6l22.0996 -9.2002
c20.4004 -8.5 30 -31.9004 21.5996 -52.2998c-1.69922 -4.10059 -6.2998 -6 -10.3994 -4.30078l-162.3 67.4004c-4.10059 1.7002 -6 6.40039 -4.30078 10.5c8.5 20.4004 31.8008 30.0996 52.2002 21.5996l22.1006 -9.19922l38.6992 101.899
c-47.8994 34.9004 -64.6992 100.2 -34.5 152.7l86.6006 150.5c8 13.9004 25.0996 19.7998 40 13.5996l114.3 -47.3994l114.3 47.3994c14.9004 6.10059 32 0.300781 40 -13.5996l86.6006 -150.5c30.2998 -52.5 13.3994 -117.8 -34.5 -152.8l38.6992 -101.9l22.1006 9.2002
c20.3994 8.5 43.7998 -1.2002 52.2002 -21.5996zM275.9 285.9l18.8994 70.6992l-94.5 39.2002l-36.5 -63.3994zM364.1 285.9l112.101 46.5l-36.5 63.3994l-94.5 -39.2002z" />
    <glyph glyph-name="glass-whiskey" unicode="&#xf7a0;" 
d="M480 416c19.5 0 34.4004 -17.2002 31.7002 -36.5l-55.6006 -356.5c-4.5 -31.5 -31.5996 -54.9004 -63.3994 -54.9004h-273c-31.9004 0 -58.9004 23.4004 -63.4004 54.9004l-56 356.5c-2.7002 19.2998 12.2002 36.5 31.7002 36.5h448zM442.6 352h-373.199l30.1992 -192
h313z" />
    <glyph glyph-name="glass-whiskey-rocks" unicode="&#xf7a1;" 
d="M252.1 102.6c-12.5 12.5 -12.5 32.8008 0 45.3008l45.3008 45.2998c12.5 12.5 32.7998 12.5 45.2998 0l45.2998 -45.2998c12.5 -12.5 12.5 -32.8008 0 -45.3008l-45.2998 -45.2998c-12.5 -12.5 -32.7998 -12.5 -45.2998 0zM480 416
c19.5 0 34.4004 -17.2002 31.7002 -36.5l-55.6006 -356.5c-4.5 -31.5 -31.5996 -54.9004 -63.3994 -54.9004h-273c-31.9004 0 -58.9004 23.4004 -63.4004 54.9004l-56 356.5c-2.7002 19.2998 12.2002 36.5 31.7002 36.5h448zM413.7 166.6l28.8994 185.4h-373.199
l26.5996 -169.1v-38.9004c0 -35.2998 28.7002 -64 64 -64h69.5l45.2002 -45.2998c12.0996 -12 28.2002 -18.7002 45.2998 -18.7002s33.2002 6.7002 45.2998 18.5996l45.2998 45.3008c12 12.0996 18.7002 28.1992 18.7002 45.2998
c0 15.3994 -5.7002 29.7998 -15.5996 41.3994zM160 112c-17.7002 0 -32 14.2998 -32 32v64c0 17.7002 14.2998 32 32 32h64c17.7002 0 32 -14.2998 32 -32v-11l-26.5 -26.4004c-12 -12.0996 -18.7002 -28.1992 -18.7002 -45.2998c0 -4.59961 0.5 -9 1.40039 -13.2998
h-52.2002z" />
    <glyph glyph-name="globe-snow" unicode="&#xf7a3;" horiz-adv-x="448" 
d="M384 32l47.4004 -71.0996c7.09961 -10.7002 -0.5 -24.9004 -13.3008 -24.9004h-388.199c-12.8008 0 -20.4004 14.2002 -13.3008 24.9004l47.4004 71.0996h320zM192 64h-124.1c-41.8008 40.5996 -67.9004 97.0996 -67.9004 160c0 123.7 100.3 224 224 224
s224 -100.3 224 -224c0 -62.9004 -26.2002 -119.4 -67.9004 -160h-124.1v32h57.7998c14.2002 0 22 15 12.9004 24.9004l-65.5 71.0996h30.0996c10.7002 0 16.5 11.2998 9.7002 18.7002l-67.4004 73.2002c-5 5.5 -14.2998 5.5 -19.2998 0l-67.3994 -73.2002
c-6.80078 -7.5 -1 -18.7002 9.69922 -18.7002h30.1006l-65.5 -71.0996c-9.10059 -9.90039 -1.2998 -24.9004 12.8994 -24.9004h57.9004v-32zM336 288c-8.7998 0 -16 -7.2002 -16 -16s7.2002 -16 16 -16s16 7.2002 16 16s-7.2002 16 -16 16zM240 384
c-8.7998 0 -16 -7.2002 -16 -16s7.2002 -16 16 -16s16 7.2002 16 16s-7.2002 16 -16 16zM80 224c-8.7998 0 -16 -7.2002 -16 -16s7.2002 -16 16 -16s16 7.2002 16 16s-7.2002 16 -16 16z" />
    <glyph glyph-name="grip-lines" unicode="&#xf7a4;" 
d="M496 160c8.7998 0 16 -7.2002 16 -16v-32c0 -8.7998 -7.2002 -16 -16 -16h-480c-8.7998 0 -16 7.2002 -16 16v32c0 8.7998 7.2002 16 16 16h480zM496 288c8.7998 0 16 -7.2002 16 -16v-32c0 -8.7998 -7.2002 -16 -16 -16h-480c-8.7998 0 -16 7.2002 -16 16v32
c0 8.7998 7.2002 16 16 16h480z" />
    <glyph glyph-name="hat-santa" unicode="&#xf7a7;" horiz-adv-x="640" 
d="M480 64c17.7002 0 32 -14.2998 32 -32v-32c0 -17.7002 -14.2998 -32 -32 -32h-448c-17.7002 0 -32 14.2998 -32 32v32c0 17.7002 14.2998 32 32 32h448zM384 256l68.5996 -160h-393.899l89.7002 215.5c26.3994 63.2998 88.1992 104.5 156.8 104.5
c50 0 97.3994 -22 129.8 -60.0996l53.0996 -62.7002c-2.5 -1.7998 -5 -3.7002 -7.19922 -5.90039c-10.8008 -10.7998 -16.6006 -24.8994 -17 -39.3994c-3.30078 -3.40039 -5.90039 -7.30078 -8.2002 -11.4004zM640 208c0 -12.0996 -8.2002 -21.9004 -19.2002 -25.2002
c5.5 -10.0996 4.40039 -22.7998 -4.2002 -31.3994c-5.2998 -5.2002 -12.0996 -7.80078 -18.8994 -7.80078c-4.2998 0 -8.5 1.5 -12.5 3.60059c-3.2998 -11 -13.1006 -19.2002 -25.2002 -19.2002s-21.9004 8.2002 -25.2002 19.2002
c-3.89941 -2.10059 -8.09961 -3.60059 -12.5 -3.60059c-6.89941 0 -13.7002 2.60059 -18.8994 7.80078c-8.60059 8.59961 -9.7002 21.2998 -4.2002 31.3994c-11 3.2998 -19.2002 13.1006 -19.2002 25.2002s8.2002 21.9004 19.2002 25.2002
c-5.5 10.0996 -4.40039 22.7998 4.2002 31.3994c8.59961 8.60059 21.2998 9.7002 31.3994 4.2002c3.2998 11 13.1006 19.2002 25.2002 19.2002s21.9004 -8.2002 25.2002 -19.2002c10.0996 5.5 22.7998 4.40039 31.3994 -4.2002
c8.60059 -8.59961 9.7002 -21.2998 4.2002 -31.3994c11 -3.2998 19.2002 -13.1006 19.2002 -25.2002z" />
    <glyph glyph-name="hat-winter" unicode="&#xf7a8;" 
d="M195.2 342.8c-11 3.2998 -19.2002 13.1006 -19.2002 25.2002s8.2002 21.9004 19.2002 25.2002c-5.5 10.0996 -4.40039 22.7998 4.2002 31.3994c8.59961 8.60059 21.2998 9.7002 31.3994 4.2002c3.2998 11 13.1006 19.2002 25.2002 19.2002
s21.9004 -8.2002 25.2002 -19.2002c10.0996 5.5 22.7998 4.40039 31.3994 -4.2002c8.60059 -8.59961 9.7002 -21.2998 4.2002 -31.3994c11 -3.2998 19.2002 -13.1006 19.2002 -25.2002s-8.2002 -21.9004 -19.2002 -25.2002c5.5 -10.0996 4.40039 -22.7998 -4.2002 -31.3994
c-5.2998 -5.2002 -12.0996 -7.80078 -18.8994 -7.80078c-4.2998 0 -8.5 1.5 -12.5 3.60059c-3.2998 -11 -13.1006 -19.2002 -25.2002 -19.2002s-21.9004 8.2002 -25.2002 19.2002c-3.89941 -2.10059 -8.09961 -3.60059 -12.5 -3.60059
c-6.89941 0 -13.7002 2.60059 -18.8994 7.80078c-8.60059 8.59961 -9.7002 21.2998 -4.2002 31.3994zM128 177.9l-64 -32l-7.2002 3.59961c19.6006 50.0996 55.1006 104.9 119 140.5c0.400391 -0.400391 0.600586 -0.799805 1 -1.2002
c10.7002 -10.7002 24.7002 -16.7002 39.6006 -17.2002c10.3994 -9.89941 24.3994 -15.6992 39.5996 -15.6992c15.0996 0 29.0996 5.7998 39.5996 15.6992c15 0.5 29 6.60059 39.6006 17.2002c0.399414 0.400391 0.599609 0.799805 1 1.2002
c63.7998 -35.5996 99.2998 -90.2998 119 -140.5l-7.2002 -3.59961l-64 32l-64 -32l-64 32l-64 -32zM496 0c8.7998 0 16 -7.2002 16 -16v-32c0 -8.7998 -7.2002 -16 -16 -16h-480c-8.7998 0 -16 7.2002 -16 16v32c0 8.7998 7.2002 16 16 16h480zM465.7 118.9
c14.0996 -48.7002 14.2998 -86.9004 14.2998 -86.9004h-448s0.200195 38.2002 14.2998 86.9004l17.7002 -8.80078l64 32l64 -32l64 32l64 -32l64 32l64 -32z" />
    <glyph glyph-name="holly-berry" unicode="&#xf7aa;" horiz-adv-x="448" 
d="M144 256c-26.5 0 -48 21.5 -48 48s21.5 48 48 48s48 -21.5 48 -48s-21.5 -48 -48 -48zM256 304c0 26.5 21.5 48 48 48s48 -21.5 48 -48s-21.5 -48 -48 -48s-48 21.5 -48 48zM224 352c-26.5 0 -48 21.5 -48 48s21.5 48 48 48s48 -21.5 48 -48s-21.5 -48 -48 -48z
M207.8 212.9c-0.399414 -39.8008 7.40039 -78.1006 22.9004 -112.301c4 -8.89941 -2 -19.1992 -11.7002 -20.1992c-15.2002 -1.5 -30.4004 -4.60059 -45.2998 -9.10059c-14.9004 -4.5 -23.7998 -19.8994 -20.2002 -35.0996s8.5 -29.9004 14.7002 -43.7998
c4 -8.90039 -1.90039 -19.3008 -11.6006 -20.2002c-35.8994 -3.40039 -71.5996 -14.9004 -104.8 -33.9004c-12.3994 -7.09961 -27.5 1.60059 -27.5996 16c-0.100586 38.2002 -8 74.9004 -23 107.7c-4 8.90039 2 19.2002 11.7002 20.2002
c15.1992 1.5 30.3994 4.59961 45.2998 9.09961c14.8994 4.5 23.7998 19.9004 20.2002 35.1006c-3.60059 15.1992 -8.5 29.8994 -14.7002 43.7998c-4 8.89941 1.89941 19.2998 11.5996 20.2002c37.2998 3.5 74.4004 15.8994 108.7 36.1992
c10.7002 6.40039 23.9004 -1.2998 23.7998 -13.6992zM435 82.4004c9.7002 -1 15.7998 -11.4004 11.5 -20.1006c-15 -32.7002 -22.7998 -69.5 -23 -107.7c0 -14.3994 -15.0996 -23.0996 -27.5996 -16c-33.2002 19 -68.9004 30.5 -104.801 33.9004
c-9.69922 0.900391 -15.5996 11.2998 -11.5996 20.2002c6.2002 14 11.0996 28.5996 14.7002 43.7998c3.59961 15.2002 -5.2998 30.5996 -20.2002 35.0996c-4.90039 1.5 -9.90039 2.5 -14.7998 3.7002c5.7998 12.2998 6.2998 26.5 0.599609 38.9004
c-12.8994 28.2998 -19.7002 60.7002 -19.8994 94c0 1.7002 0.199219 3.2998 0.199219 4.89941c-0.0996094 12.3008 13.1006 20 23.8008 13.7002c34.2998 -20.2998 71.3994 -32.7002 108.699 -36.2002c9.7002 -0.899414 15.6006 -11.2998 11.6006 -20.1992
c-6.2002 -14 -11.1006 -28.6006 -14.7002 -43.8008c-3.59961 -15.1992 5.2998 -30.5996 20.2002 -35.0996c15 -4.40039 30.0996 -7.5 45.2998 -9.09961z" />
    <glyph glyph-name="ice-skate" unicode="&#xf7ac;" horiz-adv-x="576" 
d="M568 32c4.40039 0 8 -3.59961 8 -8v-24c0 -35.2998 -28.7002 -64 -64 -64h-504c-4.40039 0 -8 3.59961 -8 8v32c0 4.40039 3.59961 8 8 8h88v48h48v-48h240v48h48v-48h72c13.2998 0 24 10.7002 24 24v16c0 4.40039 3.59961 8 8 8h32zM64 64
c-17.7002 0 -32 14.2998 -32 32v207.8c0 28.5 18.9004 53.6006 46.4004 61.5l177.6 50.7002v16c0 8.7998 7.2002 16 16 16h32c8.7998 0 16 -7.2002 16 -16v-80h-56c-4.40039 0 -8 -3.59961 -8 -8v-16c0 -4.40039 3.59961 -8 8 -8h56v-32h-56c-4.40039 0 -8 -3.59961 -8 -8
v-16c0 -4.40039 3.59961 -8 8 -8h56l119.3 -29.9004c42.7002 -10.6992 72.7002 -49 72.7002 -93.0996v-37c0 -17.7002 -14.2998 -32 -32 -32h-416z" />
    <glyph glyph-name="icicles" unicode="&#xf7ad;" 
d="M511.4 410.1l-87.5 -467.699c-1.7002 -8.60059 -14 -8.60059 -15.7002 0l-66.7002 363.8l-45.7998 -172.5c-2.2998 -7.60059 -13 -7.60059 -15.2998 0l-34.1006 133.399l-46.5 -196.899c-1.89941 -8.2998 -13.7002 -8.2998 -15.5996 0l-44.2002 187.3l-36.4004 -124.1
c-2.39941 -7.2002 -12.5996 -7.2002 -15.0996 0l-87.0996 273.399c-6.2002 20.5 9.19922 41.2002 30.5996 41.2002h448c20 0 35.0996 -18.2002 31.4004 -37.9004z" />
    <glyph glyph-name="igloo" unicode="&#xf7ae;" horiz-adv-x="576" 
d="M320 414.1v-126.1h-271.4c51.6006 77.2002 139.601 128 239.4 128c10.7998 0 21.5 -0.700195 32 -1.90039zM96 256v-128h-96c0 46 11.0996 89.4004 30.2998 128h65.7002zM352 408.6c72.7998 -16.5 135.2 -60.5 175.4 -120.6h-175.4v120.6zM480 128v128h65.7002
c19.2002 -38.5996 30.2998 -82 30.2998 -128h-96zM416 64c0 11.0996 -1.90039 21.7002 -4.5 32h164.5v-96c0 -17.7002 -14.2998 -32 -32 -32h-128v96zM448 256v-128h-49.7998c-22.2002 38.0996 -63 64 -110.2 64s-88 -25.9004 -110.2 -64h-49.7998v128h320zM0 0v96h164.5
c-2.59961 -10.2998 -4.5 -20.9004 -4.5 -32v-96h-128c-17.7002 0 -32 14.2998 -32 32zM288 160c53 0 96 -43 96 -96v-96h-192v96c0 53 43 96 96 96z" />
    <glyph glyph-name="mistletoe" unicode="&#xf7b4;" horiz-adv-x="576" 
d="M373.3 330.7c-23.5 0 -42.7002 19 -42.7002 42.5996c0 23.6006 19.1006 42.7002 42.7002 42.7002c23.6006 0 42.7002 -19 42.7002 -42.5996c0 -23.6006 -19.0996 -42.7002 -42.7002 -42.7002zM542.1 186.6c40 -40 45.4004 -99.3994 12 -132.699
c-33.2998 -33.3008 -92.6992 -27.9004 -132.699 12.0996c-26 26 -38.6006 89.5996 -44.2002 130.9l-65.2002 65.1992v-96.2998c28.4004 -32.7002 72 -89.2002 72 -127.3c0 -56.5996 -43 -102.4 -96 -102.4s-96 45.8008 -96 102.4c0 8.59961 2.5 18.2002 6.2002 28.0996
c5.7002 -1.5 11.5996 -2.5 17.7998 -2.5c39.7002 0 72 32.3008 72 72c0 21.2002 -9.40039 40.1006 -24 53.3008v72.7998l-65.2002 -65.2002c-1.09961 -8.59961 -2.7002 -18.2002 -4.5 -28.2002c6.2998 4.2002 13.5 7.2998 21.7002 7.2998c22.0996 0 40 -17.8994 40 -40
c0 -22.0996 -17.9004 -40 -40 -40c-15 0 -27.7002 8.60059 -34.5 20.9004c-6.7998 -20.7998 -15.5 -39.5996 -26.9004 -51c-39.8994 -40 -99.3994 -45.4004 -132.699 -12.0996c-33.3008 33.2998 -27.9004 92.6992 12.0996 132.699c26 26 89.5996 38.6006 130.9 44.2002
l99.0996 99.1006v102.1c0 8.7998 7.2002 16 16 16h16c8.7998 0 16 -7.2002 16 -16v-16.2998c-8.2998 -12.1006 -13.2998 -26.6006 -13.2998 -42.4004s4.89941 -30.2998 13.2998 -42.3994l99.2002 -100.101c41.2998 -5.59961 104.899 -18.2002 130.899 -44.2002z" />
    <glyph glyph-name="mitten" unicode="&#xf7b5;" horiz-adv-x="448" 
d="M368 32c8.7998 0 16 -7.2002 16 -16v-64c0 -8.7998 -7.2002 -16 -16 -16h-320c-8.7998 0 -16 7.2002 -16 16v64c0 8.7998 7.2002 16 16 16h320zM425 241.1c27.0996 -22.5996 30.7998 -62.8994 8.09961 -90.0996l-72.5 -87h-309l-47.8994 207.6
c-17.9004 77.5 30.5 154.801 107.899 172.7c77.4004 17.9004 154.801 -30.5 172.801 -108l29.5996 -128.399l20.9004 25c22.5996 27.1992 62.8994 30.7998 90.0996 8.19922z" />
    <glyph glyph-name="mug-hot" unicode="&#xf7b6;" 
d="M127.1 301.5c-2.69922 16.5996 -10.3994 31.9004 -22.3994 44.0996c-22.6006 23.1006 -36.7002 52.5 -40.6006 84.4004c-1.09961 9.5 6.5 18 16.3008 18h16.3994c8.2002 0 15 -5.90039 16.1006 -13.7998c2.7998 -20.2002 12 -38.7998 26.3994 -53.5
c20.2002 -20.5 32.7998 -46.5 36.6006 -74.7002c1.2998 -9.5 -6.5 -18 -16.3008 -18h-16.5c-8 0 -14.6992 5.7998 -16 13.5zM239.1 301.5c-2.69922 16.5996 -10.3994 31.9004 -22.3994 44.0996c-22.6006 23.1006 -36.7002 52.5 -40.6006 84.4004
c-1.19922 9.5 6.5 18 16.3008 18h16.3994c8.2002 0 15 -5.90039 16.1006 -13.7998c2.7998 -20.2002 12 -38.7998 26.3994 -53.5c20.2002 -20.5 32.7998 -46.5 36.6006 -74.7002c1.2998 -9.5 -6.5 -18 -16.3008 -18h-16.5c-8 0 -14.6992 5.7998 -16 13.5zM400 256
c61.7998 0 112 -50.2002 112 -112s-50.2002 -112 -112 -112h-16c0 -53 -43 -96 -96 -96h-192c-53 0 -96 43 -96 96v192c0 17.7002 14.2998 32 32 32h368zM400 96c26.5 0 48 21.5 48 48s-21.5 48 -48 48h-16v-96h16z" />
    <glyph glyph-name="ornament" unicode="&#xf7b8;" horiz-adv-x="384" 
d="M288 294.1c29.0996 -16.7998 53.2998 -41.0996 70.0996 -70.0996h-332.199c16.7998 29 41 53.2998 70.0996 70.0996v41.9004c0 8.7998 7.2002 16 16 16h24.9004c-5.5 9.40039 -8.90039 20.2998 -8.90039 32c0 35.2998 28.7002 64 64 64s64 -28.7002 64 -64
c0 -11.7002 -3.40039 -22.5996 -8.90039 -32h24.9004c8.7998 0 16 -7.2002 16 -16v-41.9004zM192 368c8.7998 0 16 7.2002 16 16s-7.2002 16 -16 16s-16 -7.2002 -16 -16s7.2002 -16 16 -16zM372.6 192c7.10059 -20.0996 11.4004 -41.5 11.5 -64
c0 -22.5 -4.09961 -44 -11.1992 -64h-361.7c-7.10059 20 -11.2002 41.5 -11.2002 64s4.2998 43.9004 11.4004 64h361.199zM192 -64c-71 0 -132.9 38.7002 -166.1 96h332.199c-33.1992 -57.2998 -95.0996 -96 -166.1 -96z" />
    <glyph glyph-name="restroom" unicode="&#xf7bd;" horiz-adv-x="640" 
d="M128 320c-35.2998 0 -64 28.7002 -64 64s28.7002 64 64 64s64 -28.7002 64 -64s-28.7002 -64 -64 -64zM512 320c-35.2998 0 -64 28.7002 -64 64s28.7002 64 64 64s64 -28.7002 64 -64s-28.7002 -64 -64 -64zM639.3 93.5c3.7002 -15.0996 -8.2998 -29.5 -24.5 -29.5
h-54.7998v-104c0 -13.2998 -10.7002 -24 -24 -24h-48c-13.2998 0 -24 10.7002 -24 24v104h-54.7998c-16.2002 0 -28.2002 14.4004 -24.7002 29.5l45.5996 185.8c3.30078 13.5 15.5 23 29.8008 24.2002c15 -9.7002 32.7998 -15.5 52 -15.5c19.1992 0 37 5.7998 52 15.5
c14.2998 -1.2002 26.5 -10.7002 29.7998 -24.2002zM336 448c8.7998 0 16 -7.2002 16 -16v-480c0 -8.7998 -7.2002 -16 -16 -16h-32c-8.7998 0 -16 7.2002 -16 16v480c0 8.7998 7.2002 16 16 16h32zM180.1 303.6c24.6006 -2.09961 43.9004 -22.5 43.9004 -47.5996v-136
c0 -13.2998 -10.7002 -24 -24 -24h-8v-136c0 -13.2998 -10.7002 -24 -24 -24h-80c-13.2998 0 -24 10.7002 -24 24v136h-8c-13.2998 0 -24 10.7002 -24 24v136c0 25.0996 19.2998 45.5 43.9004 47.5996c15 -9.7998 32.8994 -15.5996 52.0996 -15.5996
s37.0996 5.7998 52.0996 15.5996z" />
    <glyph glyph-name="rv" unicode="&#xf7be;" horiz-adv-x="640" 
d="M621.3 178.7c12 -12 18.7002 -28.2002 18.7998 -45.2002v-69.5c0 -17.5996 -14.3994 -32 -32 -32h-32v-16c0 -52.2998 -50.1992 -92.7998 -105 -76.2002c-32.7998 9.90039 -54.7998 42.1006 -54.8994 76.2002h-0.200195v240l101.6 -0.200195
c17 0 33.4004 -6.7998 45.4004 -18.7998zM496 -16c17.5996 0 32 14.4004 32 32s-14.4004 32 -32 32s-32 -14.4004 -32 -32s14.4004 -32 32 -32zM480 160h92.0996l-43.2998 43.2998c-3 3 -7 4.7002 -11.2998 4.7002h-37.5v-48zM608 320.8
c0.0996094 -18 -14.0996 -32.7998 -32 -32.7998h-192v-255.9h-128v-16c0 -46.8994 -40.2998 -84.3994 -88.2002 -79.5996c-41.7002 4.09961 -71.7998 42.2998 -71.7998 84.0996v11.4004l-77.2998 77.2002c-12 12 -18.7002 28.2998 -18.7002 45.2998v197.5
c0 35.2998 28.7002 64 64 64h160v16c0 8.7998 7.2002 16 16 16h128c8.7998 0 16 -7.2002 16 -16v-16h128c52.7998 0 95.5996 -42.5996 96 -95.2002zM176 -16c17.5996 0 32 14.4004 32 32s-14.4004 32 -32 32s-32 -14.4004 -32 -32s14.4004 -32 32 -32zM256 240v64
c0 8.7998 -7.2002 16 -16 16h-128c-8.7998 0 -16 -7.2002 -16 -16v-64c0 -8.7998 7.2002 -16 16 -16h128c8.7998 0 16 7.2002 16 16z" />
    <glyph glyph-name="scarf" unicode="&#xf7c1;" 
d="M214.2 347.1l155.399 -155.1l-113.1 -113.1l-135.1 140.699c-48.6006 53.7002 -13 113.301 -11.5 115.801l43.5996 73.0996c4.2998 7.2002 9.90039 13.2998 16.7998 18c44 29.7002 130.7 27.5996 171.3 0.0996094c6.90039 -4.69922 12.5 -10.7998 16.8008 -18
l43.6992 -73.3994c7.2002 -12 33.4004 -65.6006 -13.1992 -117.3l-109.801 109.6l19.5 19.4004c-16.2998 3.89941 -47.5 8.7998 -84.3994 0.199219zM166 124.3l22.5996 -22.5996l-118.399 -118.2c-3.10059 -3.09961 -8.2002 -3.09961 -11.2998 0l-11.3008 11.2998
c-3.09961 3.10059 -3.09961 8.2002 0 11.2998zM120.7 169.4l22.5996 -22.5l-118.399 -118.2c-3.10059 -3.10059 -8.2002 -3.10059 -11.3008 0l-11.2998 11.2998c-3.09961 3.09961 -3.09961 8.2002 0 11.2998zM92.9004 -39.0996l118.399 118.199l22.6006 -22.5996
l-118.4 -118.2c-3.09961 -3.09961 -8.2002 -3.09961 -11.2998 0l-11.2998 11.2998c-3.10059 3.10059 -3.10059 8.2002 0 11.3008zM301.8 79.0996l117.4 -117.199c3.09961 -3.10059 3.09961 -8.2002 0 -11.3008l-11.2998 -11.2998
c-3.10059 -3.09961 -8.2002 -3.09961 -11.3008 0l-117.399 117.2zM509.7 52.2998c3.09961 -3.2002 3.09961 -8.2002 -0.100586 -11.2998l-11.2998 -11.2998c-3.09961 -3.10059 -8.2002 -3.10059 -11.2998 0l-117.3 117.1l22.5996 22.6006zM347 124.3l117.4 -117.2
c3.09961 -3.09961 3.09961 -8.19922 0 -11.2998l-11.3008 -11.2998c-3.09961 -3.09961 -8.19922 -3.09961 -11.2998 0l-117.399 117.2z" />
    <glyph glyph-name="sd-card" unicode="&#xf7c2;" horiz-adv-x="384" 
d="M320 448c35.2998 0 64 -28.7002 64 -64v-384c0 -35.2998 -28.7002 -64 -64 -64h-256c-35.2998 0 -64 28.7002 -64 64v320l128 128h192zM160 288v96h-48v-96h48zM240 288v96h-48v-96h48zM320 288v96h-48v-96h48z" />
    <glyph glyph-name="shovel-snow" unicode="&#xf7c3;" 
d="M503.2 375.7c11.7002 -11.7002 11.7002 -30.7002 0 -42.4004l-24.5 -24.5c-17.7002 -17.7998 -43 -25.3994 -67.6006 -20.5c-6.5 1.2998 -12.5996 3.60059 -18.3994 6.40039l-99.2998 -99.2998l49.2998 -49.3008c11.2998 -11.2998 12.5 -29.1992 2.7002 -41.8994
l-120.4 -155.8c-11.7002 -15.1006 -34 -16.6006 -47.5996 -3l-168 168c-13.6006 13.5 -12.2002 35.8994 3 47.5996l155.899 120.3c12.6006 9.7998 30.6006 8.60059 41.9004 -2.7002l49.2998 -49.2998l99.2998 99.2998c-2.7998 5.80078 -5.09961 11.9004 -6.39941 18.4004
c-1 5 -1.5 9.90039 -1.5 14.7998c0 19.7002 7.69922 38.7002 21.8994 52.9004l24.5 24.5c11.7002 11.7002 30.7002 11.7002 42.4004 0zM112 96c4.09961 0 8.2002 1.59961 11.2998 4.7002l80 80c6.2002 6.2002 6.2002 16.3994 0 22.5996
c-6.2002 6.2998 -16.3994 6.2998 -22.5996 0l-80 -80c-6.2002 -6.2002 -6.2002 -16.3994 0 -22.5996c3.09961 -3.10059 7.2002 -4.7002 11.2998 -4.7002zM267.3 116.7c6.2998 6.2002 6.2002 16.3994 0 22.5996s-16.3994 6.2002 -22.5996 0l-80 -80
c-6.2002 -6.2002 -6.2002 -16.3994 0 -22.5996c3.09961 -3.10059 7.2002 -4.7002 11.2998 -4.7002s8.2002 1.59961 11.2998 4.7002zM444.8 342.7l11.7998 11.7998l-38.0996 38.0996l-11.7998 -11.7998c-6.2998 -6.39941 -9 -15.3994 -7.2998 -24.2998
c2.09961 -10.7002 10.3994 -19 21.0996 -21.0996c8.7998 -1.80078 17.9004 0.899414 24.2998 7.2998z" />
    <glyph glyph-name="skating" unicode="&#xf7c5;" horiz-adv-x="448" 
d="M400 448c26.5 0 48 -21.5 48 -48s-21.5 -48 -48 -48s-48 21.5 -48 48s21.5 48 48 48zM400 0c8.7998 0 16 -7.2002 16 -16c0 -26.5 -21.5 -48 -48 -48h-96c-8.7998 0 -16 7.2002 -16 16s7.2002 16 16 16h96c8.7998 0 16 7.2002 16 16s7.2002 16 16 16zM117.8 -8.59961
c6.2998 6.2998 16.5 6.19922 22.7002 0c6.2002 -6.2002 6.2002 -16.4004 0 -22.6006c-9.2998 -9.2998 -21.5996 -14 -33.9004 -14c-12.2998 0 -24.5996 4.60059 -34 14l-67.8994 67.9004c-6.2002 6.2002 -6.2002 16.3994 0 22.5996s16.3994 6.2002 22.5996 0
l67.9004 -67.8994c6.2002 -6.30078 16.3994 -6.2002 22.5996 0zM173.9 171.2c3.7998 -6.10059 8.19922 -11.7998 13.1992 -16.7998l30.2002 -30.2002l-91.8994 -91.9004c-6.2002 -6.2998 -14.4004 -9.39941 -22.6006 -9.39941s-16.3994 3.19922 -22.5996 9.39941
c-12.5 12.4004 -12.5 32.7002 0 45.2002zM128 288c-17.7002 0 -32 14.2998 -32 32s14.2998 32 32 32h204.6c16.3008 0 30.8008 -9.7002 37 -24.7002c6.2002 -15 2.80078 -32.0996 -8.69922 -43.5996l-82.3008 -82.2998c-0.5 -0.5 -1.19922 -0.700195 -1.69922 -1.10059
l61 -61c9 -8.89941 14.0996 -21.2998 14.0996 -33.8994v-89.4004c0 -17.7002 -14.2998 -32 -32 -32s-32 14.2998 -32 32v82.7998l-78.2002 78.2002c-12.5996 12.5 -19.3994 29.9004 -18.7002 47.7002c0.700195 17.7002 8.80078 34.5996 22.3008 46.0996l20.0996 17.2002
h-105.5z" />
    <glyph glyph-name="ski-jump" unicode="&#xf7c7;" 
d="M510.7 257.8c6.59961 -39 -12.1006 -78.5 -46.4004 -98.2002l-429.2 -220.899c-3.5 -1.7998 -7.2998 -2.7002 -11 -2.7002c-8.69922 0 -17.0996 4.7002 -21.3994 13c-6.10059 11.7998 -1.5 26.2998 10.2998 32.2998l100.7 51.9004
c-9.10059 8.7998 -12.4004 22.5996 -7.2998 35c60.3994 146.899 56.7998 138.899 60.1992 143.3l58.9004 76.5h-97.5c-17.7002 0 -32 14.2998 -32 32s14.2998 32 32 32h184c16.2998 0 30.7998 -9.7002 37 -24.7002s2.7998 -32.0996 -8.7002 -43.5996l-121.399 -110.5
l-44.9004 -109l267.2 137.5c16.0996 9.2002 25.3994 28.7998 22.0996 48.0996c-2.2002 13.1006 6.60059 25.5 19.7002 27.7002c12.9004 2.2002 25.5 -6.59961 27.7002 -19.7002zM400 352c-26.5 0 -48 21.5 -48 48s21.5 48 48 48s48 -21.5 48 -48s-21.5 -48 -48 -48z" />
    <glyph glyph-name="ski-lift" unicode="&#xf7c8;" 
d="M112 320c-26.5 0 -48 21.5 -48 48s21.5 48 48 48s48 -21.5 48 -48s-21.5 -48 -48 -48zM256 448v-176l-32 -8v184h32zM488 160c13.2998 0 24 -10.7998 24 -24c0 -33.9004 -21.4004 -64.5996 -53.2002 -76.4004l-330.5 -122.1c-2.7002 -1 -5.5 -1.5 -8.2998 -1.5
c-9.7002 0 -18.9004 6 -22.5 15.7002c-4.59961 12.3994 1.7998 26.2002 14.2002 30.7998l144.3 53.2998v123.2l-88.2002 -22.0996c-17.0996 -4.30078 -31.8994 4.19922 -39.7998 23.2998c-0.900391 2.2002 -27.7998 68.0996 -27.7998 68.0996
c-10.9004 24.2002 -0.100586 52.6006 24.0996 63.5c24.2002 10.9004 52.6006 0.100586 63.5 -24.0996l24.1006 -53.7002l68.2998 17c9.59961 2.5 19.7002 0.299805 27.5 -5.7998c7.7998 -6 12.2998 -15.2998 12.2998 -25.2002v-140.5l122.2 45.2002
c13 4.7998 21.7998 17.3994 21.7998 31.2998c0 13.2002 10.7998 24 24 24zM191.6 66.5996c-29.0996 -9.69922 -33.5 -10.5996 -46.0996 -10.5996c-33.0996 0 -64.5 18.7998 -79.5 50l-63.5996 133c-5.7002 12 -0.700195 26.2998 11.2998 32s26.2998 0.599609 32 -11.2998
l63.5996 -133c8.7002 -18.2002 29.7002 -27.1006 48.7002 -20.7002l18.4004 6.2002c12.6992 4.2998 26.1992 -2.60059 30.3994 -15.2002s-2.59961 -26.2002 -15.2002 -30.4004z" />
    <glyph glyph-name="skiing" unicode="&#xf7c9;" 
d="M432 352c-26.5 0 -48 21.5 -48 48s21.5 48 48 48s48 -21.5 48 -48s-21.5 -48 -48 -48zM505 -4.09961c9.2998 -9.30078 9.2998 -24.5 0 -33.8008c-17 -17 -39.7998 -26 -63 -26c-12.5996 0 -25.2002 2.60059 -37.0996 8.10059l-391.9 202.5
c-11.7998 6 -16.4004 20.5 -10.2998 32.2998c6.09961 11.7998 20.5996 16.2998 32.2998 10.2998l197.9 -102.3l45.8994 68.7998l-75.0996 75.2002c-14.2998 14.4004 -20.6006 34.5 -17.7002 54.4004l107 -53.1006l40.4004 -40.5
c16.1992 -16.0996 18.6992 -41.5996 6 -60.5996l-49.2002 -73.7998l135.8 -70.2002c14.5996 -6.7002 33 -3.40039 45.0996 8.7002c9.30078 9.39941 24.5 9.39941 33.9004 0zM120 356.4l-26.2002 23c-2.2002 1.89941 -2.39941 5.19922 -0.5 7.39941
c1.2998 1.5 3.2002 2.10059 5 1.7002l34.4004 -7h0.200195l11.0996 21.7002c13.7002 -7 21.2002 -21.1006 20.9004 -35.6006l62.5 -31l81.1992 32.5c43.6006 17.4004 76.4004 -15 84.5 -39.1992l17.1006 -51.2002l52.0996 -26.1006
c15.7998 -7.89941 22.2002 -27.0996 14.2998 -42.8994c-7.89941 -15.7998 -27 -22.2002 -42.8994 -14.2998l-58.1006 29c-11.3994 5.69922 -20 15.5996 -24 27.6992l-6.39941 19.1006l-32.4004 -13l-114.5 56.7998c0.100586 0.0996094 0.100586 0.200195 0.200195 0.299805
l-47.2002 23.4004c-11.5996 -9.7002 -28.3994 -12.1006 -42.7998 -4.7998z" />
    <glyph glyph-name="skiing-nordic" unicode="&#xf7ca;" horiz-adv-x="576" 
d="M336 352c-26.5 0 -48 21.5 -48 48s21.5 48 48 48s48 -21.5 48 -48s-21.5 -48 -48 -48zM552 32c13.2002 0 24 -10.7998 24 -24c0 -39.7002 -32.2998 -72 -72 -72h-480c-13.2002 0 -24 10.7002 -24 24s10.7998 24 24 24h42.9004l54.0996 270.8
c-0.700195 0.799805 -1.7002 1.2002 -2.40039 2.10059c-10.7998 14.0996 -8.09961 34.1992 5.90039 44.8994l39.7002 30.4004c23 17.5996 52.5 23.8994 80.7998 17.0996l71.2002 -21.2002c26.2998 -6.69922 49.2998 -25.3994 61.7998 -50.8994l26.0996 -53.2002h44
c17.7002 0 32 -14.2998 32 -32c0 -13.4004 -8.39941 -24.9004 -20.0996 -29.5996l-25.5 -178.4h69.5c13.2002 0 24 10.7998 24 24c0 13.2998 10.7998 24 24 24zM291.5 -16l25.5 81.2002l-85 50.2002c-27.5996 16.2998 -38.9004 50.7998 -26.2998 80.2998l37.5 87.3994
l-14.7002 4.40039c-7.90039 1.90039 -17.5996 -0.200195 -25.2998 -6.09961l-39.7002 -30.4004c-3.59961 -2.7002 -7.59961 -4.59961 -11.7002 -5.59961l-52.2998 -261.4h24.2002l62.5 131.8c7.59961 -10.8994 17.3994 -20.5996 29.5 -27.7998l22 -13l-43.1006 -91h96.9004z
M402.1 -16l25.2002 176h-33.2998c-18.2002 0 -35.0996 10.5996 -43.0996 26.9004l-20.3008 41.3994l-31.2998 -78.2998l61.2002 -36.0996c18.7002 -11.3008 27.5 -33.6006 21.5996 -54.4004l-23.5996 -75.5h43.5996z" />
    <glyph glyph-name="sledding" unicode="&#xf7cb;" 
d="M505 27.9004c9.2998 -9.30078 9.2998 -24.5 0 -33.9004c-17 -17 -39.7998 -26 -63 -26c-12.5996 0 -25.2002 2.59961 -37.0996 8.09961l-391.9 202.601c-11.7998 6.09961 -16.4004 20.5996 -10.2998 32.3994c6 11.8008 20.5996 16.3008 32.2998 10.3008l125.7 -65.1006
c-0.600586 5.40039 -0.299805 10.7998 1.7998 15.9004c1.59961 3.89941 3.90039 7.5 6.90039 10.3994l73.3994 73.4004h-82.7998c-17.7002 0 -32 14.2998 -32 32s14.2998 32 32 32h153.5c19.4004 0 36.7998 -11.5996 44.2998 -29.5996s3.40039 -38.5 -10.3994 -52.3008
l-46.1006 -46.0996h50.7998c17.7002 0 32 -14.2998 32 -32v-96c0 -7.5 -3 -14 -7.19922 -19.4004l49.0996 -25.3994c14.5996 -6.7002 33 -3.40039 45.0996 8.7002c9.30078 9.39941 24.5 9.39941 33.9004 0zM320 74v54h-104.4zM400 320c-26.5 0 -48 21.5 -48 48
s21.5 48 48 48s48 -21.5 48 -48s-21.5 -48 -48 -48z" />
    <glyph glyph-name="sleigh" unicode="&#xf7cc;" horiz-adv-x="640" 
d="M612.7 97.2998c18.5 -14.7002 28.5996 -37.2002 27.2002 -61c-2.2002 -39 -36.9004 -68.2998 -75.9004 -68.2998h-516c-8.7998 0 -16 7.2002 -16 16v16c0 8.7998 7.2002 16 16 16h519.3c13.6006 0 24.6006 11 24.6006 24.5996c0 7.5 -3.30078 14.5 -9.2002 19.2002
l-9.2998 7.40039c-6.90039 5.5 -8 15.5996 -2.5 22.5l10 12.5c5.5 6.89941 15.5996 8 22.5 2.5zM32 224v128c-17.7002 0 -32 14.2998 -32 32s14.2998 32 32 32h20.7002c65.7002 0 125.899 -37.2002 155.3 -96s89.5 -96 155.3 -96h20.7002c35.2998 0 64 28.7002 64 64v64h96
c17.7002 0 32 -14.2998 32 -32s-14.2998 -32 -32 -32v-96c0 -53 -43 -96 -96 -96v-48h-64v48h-192v-48h-64v52.5c-55.0996 14.2998 -96 63.9004 -96 123.5z" />
    <glyph glyph-name="sms" unicode="&#xf7cd;" 
d="M256 416c141.4 0 256 -93.0996 256 -208s-114.6 -208 -256 -208c-38.4004 0 -74.7002 7.09961 -107.4 19.4004c-24.5996 -19.6006 -74.2998 -51.4004 -140.6 -51.4004c-3.2002 0 -6 1.7998 -7.2998 4.7998s-0.700195 6.40039 1.5 8.7002
c0.5 0.5 42.2998 45.4004 54.7998 95.7998c-35.5996 35.7002 -57 81.1006 -57 130.7c0 114.9 114.6 208 256 208zM128.2 144c23.3994 0 42.5 17.2998 42.3994 38.5996c0 10.6006 -4.7998 20.9004 -13.2998 28.1006l-21.8994 18.7998
c-1.30078 1.09961 -2.10059 2.5 -2.10059 3.7998c0 3.10059 4.40039 6.60059 10.4004 6.60059h12.2998c4.40039 0 8 3.59961 8 8v16c0 4.39941 -3.59961 8 -8 8h-12.2002c-23.3994 0 -42.3994 -17.3008 -42.3994 -38.6006c0 -10.5996 4.7998 -20.8994 13.2998 -28.0996
l21.8994 -18.7998c1.30078 -1.10059 2.10059 -2.5 2.10059 -3.80078c0 -3.09961 -4.40039 -6.59961 -10.4004 -6.59961h-12.2998c-4.40039 0 -8 -3.59961 -8 -8v-16c0 -4.40039 3.59961 -8 8 -8h12.2002zM320 152v104c0 8.7998 -7.2002 16 -16 16h-16
c-6 0 -11.5996 -3.40039 -14.2998 -8.7998l-17.7002 -35.4004l-17.7002 35.4004c-2.7002 5.39941 -8.2002 8.7998 -14.2998 8.7998h-16c-8.7998 0 -16 -7.2002 -16 -16v-104c0 -4.40039 3.59961 -8 8 -8h16c4.40039 0 8 3.59961 8 8v68.2002l24.9004 -55.7998
c2.89941 -5.90039 11.3994 -5.90039 14.2998 0l24.7998 55.7998v-68.2002c0 -4.40039 3.59961 -8 8 -8h16c4.40039 0 8 3.59961 8 8zM368.3 144c23.4004 0 42.4004 17.2998 42.2998 38.5996c0 10.6006 -4.7998 20.9004 -13.2998 28.1006l-21.8994 18.7998
c-1.30078 1.09961 -2.10059 2.5 -2.10059 3.7998c0 3.10059 4.40039 6.60059 10.4004 6.60059h12.2998c4.40039 0 8 3.59961 8 8v16c0 4.39941 -3.59961 8 -8 8h-12.2002c-23.3994 0 -42.3994 -17.3008 -42.3994 -38.6006c0 -10.5996 4.7998 -20.8994 13.2998 -28.0996
l21.8994 -18.7998c1.30078 -1.10059 2.10059 -2.5 2.10059 -3.80078c0 -3.09961 -4.40039 -6.59961 -10.4004 -6.59961h-12.2998c-4.40039 0 -8 -3.59961 -8 -8v-16c0 -4.40039 3.59961 -8 8 -8h12.2998z" />
    <glyph glyph-name="snowboarding" unicode="&#xf7ce;" 
d="M432 352c-26.5 0 -48 21.5 -48 48s21.5 48 48 48s48 -21.5 48 -48s-21.5 -48 -48 -48zM460.8 198.4l-83.5 62.8994l-66 -30.5l52 -39c14.9004 -11.2002 22 -30.2002 18.1006 -48.3994l-21.9004 -102c-2.2002 -10.1006 -9.09961 -17.8008 -17.7998 -21.9004
l90.7998 -33.0996c9.7002 -3.5 20.2002 -3.10059 29.5 1.2998c12 5.59961 26.2998 0.399414 31.9004 -11.6006c5.59961 -12 0.399414 -26.2998 -11.6006 -31.8994c-11.5996 -5.5 -24 -8.2002 -36.5 -8.2002c-10 0 -20 1.7998 -29.7002 5.2998l-364.8 132.7
c-21.7998 7.90039 -39.0996 23.7998 -48.8994 44.7998c-5.60059 12 -0.400391 26.2998 11.5996 31.9004c12 5.59961 26.2998 0.399414 31.9004 -11.6006c4.39941 -9.39941 12.0996 -16.5 21.7998 -20l38.7002 -14.0996c-3.80078 3.5 -7 7.7002 -8.7002 12.9004
c-5.60059 16.7998 3.39941 34.8994 20.2002 40.5l74.0996 24.6992v53.1006c0 24.3994 13.5996 46.2998 35.4004 57.2002l41.1992 20.5996l-16.3994 5.5c-12.1006 4.09961 -22 12.5996 -27.7002 24l-29.0996 58.0996c-7.90039 15.8008 -1.5 35 14.2998 42.9004
s35 1.5 42.8994 -14.2998l26.1006 -52.1006l63.7002 -21.1992c16.2998 -5.40039 31.5996 -13.5 45.3994 -23.8008l111.4 -83.5c14.2002 -10.5996 17 -30.6992 6.39941 -44.7998c-6.2998 -8.39941 -15.8994 -12.7998 -25.5996 -12.7998
c-6.7002 0 -13.4004 2.09961 -19.2002 6.40039zM316.4 146.7l-60.5 45.2998v-20.5c0 -20.7002 -13.2002 -39 -32.8008 -45.5l-85 -28.4004c-2.59961 -0.899414 -5.2998 -1.09961 -8 -1.2998l169.4 -61.5996c-2.90039 6.09961 -4.2998 12.8994 -2.7998 20z" />
    <glyph glyph-name="snowflakes" unicode="&#xf7cf;" horiz-adv-x="640" 
d="M608.1 192l27.9004 -16c3.7998 -2.2002 5.09961 -7.09961 2.90039 -10.9004l-8 -13.8994c-2.2002 -3.7998 -7.10059 -5.10059 -10.9004 -2.90039l-28 16.1006v-28.4004c0 -4.40039 -3.59961 -8 -8 -8h-16c-4.40039 0 -8 3.59961 -8 8v28.4004l-28 -16.1006
c-3.7998 -2.2002 -8.7002 -0.899414 -10.9004 2.90039l-8 13.8994c-2.19922 3.80078 -0.899414 8.7002 2.90039 10.9004l27.9004 16l-27.9004 16c-3.7998 2.2002 -5.09961 7.09961 -2.90039 10.9004l8 13.8994c2.2002 3.7998 7.10059 5.10059 10.9004 2.90039l28 -16.1006
v28.4004c0 4.40039 3.59961 8 8 8h16c4.40039 0 8 -3.59961 8 -8v-28.4004l28 16.1006c3.7998 2.2002 8.7002 0.899414 10.9004 -2.90039l8 -13.8994c2.19922 -3.80078 0.899414 -8.7002 -2.90039 -10.9004zM445.9 302.3c4.2998 -7.39941 1.7998 -16.8994 -5.7002 -21.2002
l-33.7998 -19.5l26 -7c8.19922 -2.19922 13.0996 -10.6992 10.8994 -18.8994l-4 -14.9004c-2.2002 -8.2002 -10.7002 -13.0996 -18.8994 -10.8994l-70.8008 19l-63.7998 -36.9004l63.7998 -36.9004l70.8008 19c8.19922 2.2002 16.6992 -2.69922 18.8994 -10.8994l4 -14.9004
c2.2002 -8.2002 -2.7002 -16.7002 -10.8994 -18.8994l-26 -7l33.7998 -19.5c7.39941 -4.30078 10 -13.7002 5.7002 -21.1006l-15.5 -26.7998c-4.30078 -7.40039 -13.7002 -10 -21.1006 -5.7002l-33.7998 19.5l7 -26c2.2002 -8.2002 -2.7002 -16.7002 -10.9004 -18.8994
l-14.8994 -4c-8.2002 -2.2002 -16.7002 2.69922 -18.9004 10.8994l-19 70.7998l-62.7998 36.2002v-77.5l53.4004 -53.7002c6.19922 -6.19922 6.19922 -16.3994 0 -22.5996l-11.3008 -11.2998c-6.19922 -6.2002 -16.3994 -6.2002 -22.5996 0l-19.7002 19.7002v-40.4004
c0 -8.7998 -7.2002 -16 -16 -16h-32c-8.7998 0 -16 7.2002 -16 16v40.2998l-19.7002 -19.7002c-6.19922 -6.19922 -16.3994 -6.19922 -22.5996 0l-11.2998 11.3008c-6.2002 6.19922 -6.2002 16.3994 0 22.5996l53.7002 53.7002v77.5l-62.8008 -36.2002l-19 -70.7998
c-2.19922 -8.2002 -10.6992 -13.1006 -18.8994 -10.9004l-14.9004 4c-8.2002 2.2002 -13.0996 10.7002 -10.8994 18.9004l7 26l-33.8008 -19.5c-7.39941 -4.2002 -16.7998 -1.7002 -21.0996 5.7002l-15.5 26.7998c-4.2002 7.39941 -1.7002 16.7998 5.7002 21.0996
l33.7998 19.6006l-26 7c-8.2002 2.19922 -13.0996 10.6992 -10.9004 18.8994l4 14.9004c2.2002 8.2002 10.7002 13.0996 18.9004 10.8994l70.7998 -19l63.7998 36.9004l-63.7998 36.9004l-70.7998 -19c-8.2002 -2.2002 -16.7002 2.69922 -18.9004 10.8994l-4 14.9004
c-2.19922 8.2998 2.7002 16.7998 11 19l26 7l-33.7998 19.5c-7.39941 4.2998 -10 13.7002 -5.7002 21.0996l15.5 26.7002c4.30078 7.40039 13.7002 10 21.1006 5.7002l33.7998 -19.5l-7 26c-2.2002 8.2002 2.7002 16.7002 10.9004 18.8994l14.8994 4
c8.2002 2.2002 16.7002 -2.69922 18.9004 -10.8994l19 -70.7998l62.7998 -36.2002v77.5l-53.7002 53.7002c-6.2002 6.19922 -6.2002 16.3994 0 22.5996l11.4004 11.2998c6.2002 6.2002 16.3994 6.2002 22.5996 0l19.7002 -19.7002v40.4004c0 8.7998 7.2002 16 16 16h32
c8.7998 0 16 -7.2002 16 -16v-40.4004l19.7998 19.7002c6.2002 6.2002 16.4004 6.2002 22.6006 0l11.2998 -11.2998c6.2002 -6.2002 6.2002 -16.4004 0 -22.5996l-53.7002 -53.7002v-77.5l62.7998 36.2998l19 70.7998c2.2002 8.2002 10.7002 13.1006 18.9004 10.9004
l14.8994 -4c8.2002 -2.2002 13.1006 -10.7002 10.9004 -18.9004l-7 -26l33.7998 19.5c7.40039 4.2002 16.7998 1.7002 21.1006 -5.7002zM527.9 328v28.4004l-28 -16.1006c-3.80078 -2.2002 -8.7002 -0.899414 -10.9004 2.90039l-8 13.8994
c-2.2002 3.80078 -0.900391 8.7002 2.90039 10.9004l27.8994 16l-27.8994 16c-3.80078 2.2002 -5.10059 7.09961 -2.90039 10.9004l8 13.8994c2.2002 3.7998 7.09961 5.10059 10.9004 2.90039l28 -16.1006v28.4004c0 4.40039 3.59961 8 8 8h16c4.39941 0 8 -3.59961 8 -8
v-28.4004l28 16.1006c3.7998 2.2002 8.69922 0.899414 10.8994 -2.90039l8 -13.8994c2.2002 -3.80078 0.900391 -8.7002 -2.89941 -10.9004l-27.9004 -16l27.9004 -16c3.7998 -2.2002 5.09961 -7.09961 2.89941 -10.9004l-8 -13.8994
c-2.2002 -3.7998 -7.09961 -5.10059 -10.8994 -2.90039l-28 16.1006v-28.4004c0 -4.40039 -3.60059 -8 -8 -8h-16c-4.40039 0 -8 3.59961 -8 8z" />
    <glyph glyph-name="snowman" unicode="&#xf7d0;" 
d="M510.9 295.7c3.19922 -8.10059 -0.800781 -17.2002 -8.90039 -20.2998l-135.2 -55.2002c0.400391 -4.10059 1.2002 -8 1.2002 -12.2002c0 -10 -1.7002 -19.5 -4.2002 -28.7002c21.1006 -21.3994 36.1006 -48.7998 41.6006 -79
c11.5 -63.2002 -16.4004 -120.3 -62.9004 -152.6c-10.9004 -7.60059 -23.9004 -11.7002 -37.2002 -11.7002h-99.2002c-11 0 -22 2.2998 -31.2998 8.2002c-42.3994 26.8994 -70.7998 73.7998 -70.7998 127.8c0 41.7998 16.9004 79.5996 44.2998 107.1
c-2.5 9.30078 -4.2002 18.8008 -4.2002 28.9004c0 4.2002 0.800781 8.2002 1.2002 12.2002l-135.2 55.2002c-8.19922 3.19922 -12.1992 12.2998 -8.89941 20.2998l5.89941 14.5c3.30078 8 12.6006 11.8994 20.8008 8.7002l28.0996 -11.5v29
c0 8.59961 7.2002 15.5996 16 15.5996h16c8.7998 0 16 -7 15.7998 -15.5996v-46.9004c0 -0.5 -0.200195 -1 -0.299805 -1.5l56.4004 -23c6 10 13.2998 18.9004 22 26.5996c-13.5 16.6006 -22 37.4004 -22 60.5c0 53 43 96 96 96s96 -43 96 -96
c0 -23.0996 -8.40039 -43.8994 -22 -60.5c8.69922 -7.69922 16.0996 -16.5996 22 -26.5996l56.3994 23c0 0.5 -0.299805 1 -0.299805 1.5v46.9004c0 8.59961 7.2002 15.5996 16 15.5996h16c8.7998 0 16 -7 16 -15.5996v-29l28.2002 11.5
c8.2002 3.19922 17.5 -0.700195 20.7998 -8.7002zM224 352c8.7998 0 16 7.2002 16 16s-7.2002 16 -16 16s-16 -7.2002 -16 -16s7.2002 -16 16 -16zM256 80c8.7998 0 16 7.2002 16 16s-7.2002 16 -16 16s-16 -7.2002 -16 -16s7.2002 -16 16 -16zM256 144
c8.7998 0 16 7.2002 16 16s-7.2002 16 -16 16s-16 -7.2002 -16 -16s7.2002 -16 16 -16zM256 208c8.7998 0 16 7.2002 16 16s-7.2002 16 -16 16s-16 -7.2002 -16 -16s7.2002 -16 16 -16zM256 296c0 0 16 23.2002 16 32s-7.2002 16 -16 16s-16 -7.2002 -16 -16s16 -32 16 -32z
M288 352c8.7998 0 16 7.2002 16 16s-7.2002 16 -16 16s-16 -7.2002 -16 -16s7.2002 -16 16 -16z" />
    <glyph glyph-name="snowmobile" unicode="&#xf7d1;" horiz-adv-x="640" 
d="M636.8 1.59961c5.2998 -7.09961 3.90039 -17.0996 -3.2002 -22.3994l-34.0996 -25.6006c-15.2002 -11.3994 -33.7998 -17.5996 -52.7998 -17.5996h-114.7c-8.7998 0 -16 7.2002 -16 16v16c0 8.7998 7.2002 16 16 16h54l-36 48h-386
c-23.7998 0 -39.2998 25 -28.5996 46.2002l32 64c5.39941 10.8994 16.5 17.7002 28.5996 17.7002h31.0996c-7.5 7.19922 -13.5 15.8994 -16.8994 26.0996c-5.40039 16.2998 -4.10059 33.5996 3.5 48.9004l29.7998 59.6992c9.2002 18.3008 26.7998 31.2002 47 34.5
c20.2998 3.30078 41 -3.39941 55.5 -17.8994l55.2998 -55.2002h58.7002l13.2998 17.5996l-35.5996 71.2002c-3.90039 7.90039 -0.700195 17.5 7.2002 21.5c8 3.90039 17.5 0.700195 21.5 -7.2002l41.5 -83.0996l159.3 -79.7002
c5.39941 -2.7002 8.7998 -8.2002 8.7998 -14.2998v-77.5c0 -5.2998 -2.59961 -10.2998 -7.09961 -13.2998l-68.9004 -45.9004l46 -61.2998h0.700195c8.7002 0 17.0996 2.7998 24 8l34.0996 25.5996c7.10059 5.30078 17.1006 3.90039 22.4004 -3.19922zM288 160l24 31.9004
h-10.7002c-17 0 -33.0996 6.69922 -45.2002 18.7998l-33.8994 33.8994l-25.6006 -51.0996l67 -33.5h24.4004zM240 352c-26.5 0 -48 21.5 -48 48s21.5 48 48 48s48 -21.5 48 -48s-21.5 -48 -48 -48zM288 0c17.7002 0 32 -14.2998 32 -32s-14.2998 -32 -32 -32h-256
c-17.7002 0 -32 14.2998 -32 32s14.2998 32 32 32h256z" />
    <glyph glyph-name="snowplow" unicode="&#xf7d2;" horiz-adv-x="640" 
d="M120 72c13.2998 0 24 -10.7002 24 -24s-10.7002 -24 -24 -24s-24 10.7002 -24 24s10.7002 24 24 24zM200 72c13.2998 0 24 -10.7002 24 -24s-10.7002 -24 -24 -24s-24 10.7002 -24 24s10.7002 24 24 24zM280 72c13.2998 0 24 -10.7002 24 -24s-10.7002 -24 -24 -24
s-24 10.7002 -24 24s10.7002 24 24 24zM360 72c13.2998 0 24 -10.7002 24 -24s-10.7002 -24 -24 -24s-24 10.7002 -24 24s10.7002 24 24 24zM598.6 22.5996l36.7002 -36.6992c6.2002 -6.2002 6.2002 -16.4004 0 -22.6006l-22.5996 -22.5996
c-6.2002 -6.2002 -16.4004 -6.2002 -22.6006 0l-36.6992 36.7002c-26.5 26.5 -41.4004 62.3994 -41.4004 99.8994v18.7002h-43.2002c7 -14.5996 11.2002 -30.7002 11.2002 -48c0 -61.9004 -50.0996 -112 -112 -112h-256c-61.9004 0 -112 50.0996 -112 112
c0 44.5996 26.2998 82.7998 64 100.8v91.2002c0 26.5 21.5 48 48 48h16v112c0 26.5 21.5 48 48 48h144.3c19.2998 0 36.6006 -11.4004 44.2002 -29.0996l78.2998 -182.801c3.40039 -8 5.2002 -16.5 5.2002 -25.1992v-50.9004h64v18.7002
c0 37.5 14.9004 73.3994 41.4004 99.8994l36.6992 36.7002c6.2002 6.2002 16.4004 6.2002 22.6006 0l22.5996 -22.5996c6.2002 -6.2002 6.2002 -16.4004 0 -22.6006l-36.7002 -36.6992c-14.5 -14.5 -22.5996 -34.1006 -22.5996 -54.6006v-101.6
c0 -20.5 8.09961 -40.1006 22.5996 -54.6006zM192 384v-96l64 -64h122.4l-68.6006 160h-117.8zM368 0c26.5 0 48 21.5 48 48s-21.5 48 -48 48h-256c-26.5 0 -48 -21.5 -48 -48s21.5 -48 48 -48h256z" />
    <glyph glyph-name="star-christmas" unicode="&#xf7d4;" 
d="M505.3 200.6c8.90039 -2.19922 8.90039 -15 -0.0996094 -17.1992l-192.601 -48.1006l-48.0996 -192.5c-2.2002 -9 -15 -9 -17.2002 0l-48.0996 192.5l-192.5 48.1006c-9 2.19922 -9 15 0 17.1992l192.6 48.1006l48.1006 192.6c2.19922 9 15 9 17.1992 0l48.2002 -192.6z
M152.9 270.1l-55.1006 68.8008c-6 7.5 3.7002 17.1992 11.2002 11.1992l68.7998 -55.0996l-5 -19.9004zM359.1 113.9l55.1006 -68.8008c6 -7.5 -3.7002 -17.1992 -11.2002 -11.1992l-68.7998 55.0996l5 19.9004zM359.1 270.1l-19.8994 5.10059l-5 19.8994l68.7998 55
c7.5 6 17.2002 -3.69922 11.2002 -11.1992zM152.9 113.9l20 -5l5 -19.9004l-68.8008 -55.0996c-7.5 -6 -17.1992 3.69922 -11.1992 11.1992z" />
    <glyph glyph-name="tenge" unicode="&#xf7d7;" horiz-adv-x="384" 
d="M372 288c6.59961 0 12 -5.40039 12 -12v-56c0 -6.59961 -5.40039 -12 -12 -12h-140v-228c0 -6.59961 -5.40039 -12 -12 -12h-56c-6.59961 0 -12 5.40039 -12 12v228h-140c-6.59961 0 -12 5.40039 -12 12v56c0 6.59961 5.40039 12 12 12h360zM372 416
c6.59961 0 12 -5.40039 12 -12v-56c0 -6.59961 -5.40039 -12 -12 -12h-360c-6.59961 0 -12 5.40039 -12 12v56c0 6.59961 5.40039 12 12 12h360z" />
    <glyph glyph-name="toilet" unicode="&#xf7d8;" horiz-adv-x="384" 
d="M368 400h-16v-156.7c20.2002 -10.0996 32 -22.2002 32 -35.2998c0 -67.2002 -34.5996 -126.2 -86.7998 -160.5l21.3994 -70.2002c6.30078 -20.5 -9.09961 -41.2998 -30.5996 -41.2998h-192c-21.5 0 -36.9004 20.7998 -30.5996 41.2998l21.3994 70.2002
c-52.2002 34.2998 -86.7998 93.2998 -86.7998 160.5c0 13.0996 11.7998 25.2002 32 35.2998v156.7h-16c-8.7998 0 -16 7.2002 -16 16v16c0 8.7998 7.2002 16 16 16h352c8.7998 0 16 -7.2002 16 -16v-16c0 -8.7998 -7.2002 -16 -16 -16zM80 376v-16
c0 -4.40039 3.59961 -8 8 -8h48c4.40039 0 8 3.59961 8 8v16c0 4.40039 -3.59961 8 -8 8h-48c-4.40039 0 -8 -3.59961 -8 -8zM192 176c77.0996 0 139.6 14.2998 139.6 32s-62.5 32 -139.6 32s-139.6 -14.2998 -139.6 -32s62.5 -32 139.6 -32z" />
    <glyph glyph-name="tram" unicode="&#xf7da;" 
d="M288 384c-17.7002 0 -32 14.2998 -32 32s14.2998 32 32 32s32 -14.2998 32 -32s-14.2998 -32 -32 -32zM511.5 396.1c2.2002 -8.5 -2.7998 -17.2998 -11.4004 -19.5996l-228.1 -60.7998v-91.7002h176c17.7002 0 32 -14.2998 32 -32v-224c0 -17.7002 -14.2998 -32 -32 -32
h-384c-17.7002 0 -32 14.2998 -32 32v224c0 17.7002 14.2998 32 32 32h176v83.2002l-219.9 -58.7002c-1.2998 -0.299805 -2.69922 -0.5 -4.09961 -0.5c-7.09961 0 -13.5 4.7002 -15.4004 11.7998c-2.2998 8.60059 2.80078 17.2998 11.3008 19.6006l480 128
c8.59961 2.2998 17.2998 -2.7002 19.5996 -11.3008zM176 64v96h-96v-96h96zM336 160v-96h96v96h-96zM304 160h-96v-96h96v96zM192 352c-17.7002 0 -32 14.2998 -32 32s14.2998 32 32 32s32 -14.2998 32 -32s-14.2998 -32 -32 -32z" />
    <glyph glyph-name="tree-christmas" unicode="&#xf7db;" horiz-adv-x="448" 
d="M224 288l-26.7002 53.2998l-53.2998 26.7002l53.2998 26.7002l26.7002 53.2998l26.7002 -53.2998l53.2998 -26.7002l-53.2998 -26.7002zM439.6 -7.59961c18.9004 -21.8008 3.80078 -56.4004 -24.7998 -56.4004h-381.7c-28.5 0 -43.6992 34.5 -24.6992 56.4004
l89.7998 103.6h-36c-25.6006 0 -39.5 26.2998 -23.2002 43.5l146.2 154.5l38.7998 -54l38.7998 54l146.2 -154.5c16.2998 -17.2002 2.40039 -43.5 -23.2002 -43.5h-36zM160 136c13.2998 0 24 10.7002 24 24s-10.7002 24 -24 24s-24 -10.7002 -24 -24s10.7002 -24 24 -24z
M288 8c13.2998 0 24 10.7002 24 24s-10.7002 24 -24 24s-24 -10.7002 -24 -24s10.7002 -24 24 -24z" />
    <glyph glyph-name="tree-decorated" unicode="&#xf7dc;" horiz-adv-x="448" 
d="M439.6 -7.59961c18.9004 -21.8008 3.80078 -56.4004 -24.7998 -56.4004h-381.7c-28.5 0 -43.6992 34.5 -24.6992 56.4004l89.7998 103.6h-36c-25.6006 0 -39.5 29.2002 -23.2002 48.5l95 111.5h-44.7998c-21.2998 0 -32.9004 22.5 -19.2998 37.2998l134.8 146.5
c10 10.9004 28.5996 10.9004 38.5996 0l134.9 -146.5c13.5996 -14.7998 2 -37.2998 -19.2998 -37.2998h-44.8008l94.9004 -111.5c16.2998 -19.2998 2.40039 -48.5 -23.2002 -48.5h-36zM160 136c13.2998 0 24 10.7002 24 24s-10.7002 24 -24 24s-24 -10.7002 -24 -24
s10.7002 -24 24 -24zM232 288c0 -13.2998 10.7002 -24 24 -24s24 10.7002 24 24s-10.7002 24 -24 24s-24 -10.7002 -24 -24zM288 8c13.2998 0 24 10.7002 24 24s-10.7002 24 -24 24s-24 -10.7002 -24 -24s10.7002 -24 24 -24z" />
    <glyph glyph-name="truck-plow" unicode="&#xf7de;" horiz-adv-x="640" 
d="M598.6 54.5996l36.7002 -36.6992c6.2002 -6.2002 6.2002 -16.4004 0 -22.6006l-22.5996 -22.5996c-6.2002 -6.2002 -16.4004 -6.2002 -22.6006 0l-36.6992 36.7002c-23.4004 23.2998 -37 54 -40.1006 86.5996h-39.2002c3.60059 -10.0996 5.90039 -20.7002 5.90039 -32
c0 -53 -43 -96 -96 -96s-96 43 -96 96c0 11.2998 2.2998 21.9004 5.90039 32h-75.8008c3.60059 -10.0996 5.90039 -20.7002 5.90039 -32c0 -53 -43 -96 -96 -96s-96 43 -96 96c0 11.2998 2.2998 21.9004 5.90039 32h-5.90039c-17.7002 0 -32 14.2998 -32 32v96
c0 17.7002 14.2998 32 32 32h96v120c0 22.0996 17.9004 40 40 40h110.9c16.7998 0 32.5996 -8.90039 41.1992 -23.2998l82 -136.7h45.9004c17.7002 0 32 -14.2998 32 -32v-64h32v50.7002c0 37.5 14.9004 73.3994 41.4004 99.8994l36.6992 36.7002
c6.2002 6.2002 16.4004 6.2002 22.6006 0l22.5996 -22.5996c6.2002 -6.2002 6.2002 -16.4004 0 -22.6006l-36.7002 -36.6992c-14.5 -14.5 -22.5996 -34.1006 -22.5996 -54.6006v-101.6c0 -20.5 8.09961 -40.1006 22.5996 -54.6006zM192 352v-96h135.5l-57.5996 96h-77.9004z
M160 64c0 17.5996 -14.4004 32 -32 32s-32 -14.4004 -32 -32s14.4004 -32 32 -32s32 14.4004 32 32zM384 32c17.5996 0 32 14.4004 32 32s-14.4004 32 -32 32s-32 -14.4004 -32 -32s14.4004 -32 32 -32z" />
    <glyph glyph-name="wreath" unicode="&#xf7e2;" horiz-adv-x="448" 
d="M298.9 63.2002c10.3994 3.39941 21.0996 -4.2998 21.0996 -15.2002v-96c0 -10.9004 -10.7002 -18.7002 -21.0996 -15.2002l-74.9004 31.2002l-74.9004 -31.2002c-10.3994 -3.39941 -21.0996 4.2998 -21.0996 15.2002v96c0 10.9004 10.7002 18.7002 21.0996 15.2002
l74.9004 -31.2002zM448 224c0 -16.9004 -8.7002 -31.5996 -21.5996 -40.0996c8.7998 -12.9004 11.2998 -29.9004 4.7998 -45.5c-6.60059 -15.9004 -20.7002 -25.8008 -36.5 -28.5c3.39941 -15.5 -0.100586 -32.2002 -12.1006 -44.2002
c-8.59961 -8.60059 -19.5996 -12.7998 -30.7998 -13.5c-2.2002 24.5 -22.5996 43.7998 -47.5996 43.7998c-5.2002 0 -10.2998 -0.900391 -15.2002 -2.5l-1.09961 -0.400391l-1.10059 -0.399414l-62.7002 -26.1006l-62.6992 26.1006l-1.10059 0.399414l-1.09961 0.400391
c-4.90039 1.7002 -10 2.5 -15.2002 2.5c-12.5 0 -24.5 -4.90039 -33.5 -13.7002c-8.2998 -8.2002 -13 -18.7998 -14 -30.2002c-11.2002 0.800781 -22.2002 4.90039 -30.7998 13.5c-12.1006 12 -15.5 28.7002 -12.1006 44.2002c-15.7998 2.7002 -29.8994 12.7002 -36.5 28.5
c-6.5 15.6006 -4.09961 32.6006 4.80078 45.5c-13.2002 8.60059 -21.9004 23.2998 -21.9004 40.2002s8.7002 31.5996 22 40.2998c-8.7998 12.9004 -11.2998 29.9004 -4.7998 45.5c6.59961 15.7998 20.5996 26.1006 36.3994 28.7998
c-3.2998 15.4004 0.200195 31.9004 12.1006 43.8008c11.8994 11.8994 28.3994 15.3994 43.7998 12.0996c2.59961 15.7002 13 29.7998 28.7998 36.4004c15.5 6.5 32.5 4.09961 45.5 -4.80078c8.60059 13.2002 23.2998 21.9004 40.2002 21.9004
s31.5996 -8.7002 40.2998 -21.9004c12.9004 8.80078 29.9004 11.3008 45.5 4.80078c15.7998 -6.5 26.1006 -20.6006 28.7998 -36.4004c15.3008 3.2998 31.9004 -0.200195 43.8008 -12.0996c11.8994 -11.9004 15.3994 -28.4004 12.0996 -43.8008
c15.7002 -2.69922 29.7998 -13 36.4004 -28.8994c6.5 -15.6006 4.09961 -32.6006 -4.80078 -45.5c13.2002 -8.60059 21.9004 -23.2998 21.9004 -40.2002zM301.5 197.8c2.7002 8.60059 10.5 16.7002 10.5 26.2002s-7.7998 17.5996 -10.5 26.2002
c-2.7998 8.89941 -1.09961 20.2002 -6.2998 27.5996c-5.2002 7.5 -16.1006 9.40039 -23.2998 14.7998c-7.10059 5.40039 -12.2002 15.6006 -20.7002 18.5c-8.2002 2.80078 -18.1006 -2.2998 -27.2002 -2.2998s-19 5.10059 -27.2002 2.2998
c-8.59961 -2.89941 -13.5996 -13.0996 -20.7002 -18.5c-7.19922 -5.5 -18.0996 -7.2998 -23.2998 -14.7998c-5.2002 -7.39941 -3.5 -18.7002 -6.2998 -27.5996c-2.7002 -8.60059 -10.5 -16.7002 -10.5 -26.2002s7.7998 -17.5996 10.5 -26.2002
c2.7998 -8.89941 1.09961 -20.2002 6.2998 -27.5996c5.2002 -7.5 16.1006 -9.40039 23.2998 -14.7998c7.10059 -5.40039 12.2002 -15.6006 20.7002 -18.5c8.2002 -2.80078 18.1006 2.2998 27.2002 2.2998s19 -5.10059 27.2002 -2.2998
c8.59961 2.89941 13.5996 13.0996 20.7002 18.5c7.19922 5.5 18.0996 7.2998 23.2998 14.7998c5.2002 7.39941 3.5 18.7002 6.2998 27.5996z" />
  </font>
</defs>
</svg>
